Today is a free download without charge Download

Железнодорожный роман / Roman de gare (Клод Лелуш / Claude Lelouch) [ 2007 , Франция , триллер, драма , BDRip 1080p]

Reply to topic
 
Author
Message

Delia ®

Gender:

Longevity: 10 years

Posts: 1821

Торрент-статистика

Post 10-Jan-2013 17:40

[Quote]

-Железнодорожный романRoman de gare-- Год выпуска: 2007
Страна: Франция
Жанр: триллер, драма
Продолжительность: 01:44:51
Перевод: Профессиональный (многоголосый, закадровый)
Режиссер: Клод Лелуш / Claude Lelouch В ролях: Доминик Пинон (Pierre Laclos / Louis), Фанни Ардан (Judith Ralitzer), Одри Дана (Huguette), Мишель Бернье (Florence, la soeur), Мириам Буайе (La m re d'Huguette), Зинедин Суалем (Le commissaire), Борис Вентура (Alain), Марк Риуфол (Le propriétaire du vignoble), Томас Ле Дуарец, Ив Битун, Ребекка Бланк, Жером Кашон
Описание: Полиция допрашивает писательницу Жюдит Ралитцер. Она подозревается в убийстве, но кто её жертва? Из тюрьмы сбегает серийный убийца по кличке Фокусник, названным так из-за привычки показывать фокусы своим жертвам. На заправке парикмахерша Югетт, только что поссорившаяся с другом, переживает разрыв. К ней подходит незнакомец, который не прочь завязать разговор. А вдруг это тот самый маньяк? Действие перепрыгивает во времени, герои оказываются связаны друг с другом, а зрителю предстоит поломать голову в попытках понять, кто же на самом деле Фокусник и в чём обвиняется знаменитая писательница.-
MPAA: - Лицам до 17 лет обязательно присутствие взрослого--
Качество: BDRip1080p
Контейнер: MKV
Видео: AVC, 1920x816 (2.35:1), 10473 kbps, 24 fps, 0,279 bpp
Аудио: русский /; AC3 /; 5.1 /; 48 kHz /; 384 kbps /; 16 bit; |MVO| --

Media Info

General
Unique ID : 184694459474232319430944377400174644991 (0x8AF2DBE7D7A5D5F08C82614DBAA90EFF)
Complete name : E:\Roman de gare (2007)1080p.F-HD.mkv
Format : Matroska
Format version : Version 4 / Version 2
File size : 7.95 GiB
Duration : 1h 44mn
Overall bit rate : 10.9 Mbps
Encoded date : UTC 2010-02-22 21:41:31
Writing application : mkvmerge v5.9.0 ('On The Loose') built on Dec 9 2012 15:37:01
Writing library : libebml v1.3.0 + libmatroska v1.4.0
Video
ID : 1
Format : AVC
Format/Info : Advanced Video Codec
Format profile : [email protected]
Format settings, CABAC : Yes
Format settings, ReFrames : 4 frames
Codec ID : V_MPEG4/ISO/AVC
Duration : 1h 44mn
Bit rate : 10.5 Mbps
Width : 1 920 pixels
Height : 816 pixels
Display aspect ratio : 2.35:1
Frame rate : 24.000 fps
Color space : YUV
Chroma subsampling : 4:2:0
Bit depth : 8 bits
Scan type : Progressive
Bits/(Pixel*Frame) : 0.279
Stream size : 7.51 GiB (94%)
Writing library : x264 core 129 r2230kMod 1cffe9f
Encoding settings : cabac=1 / ref=4 / deblock=1:-2:-2 / analyse=0x3:0x113 / me=umh / subme=10 / psy=1 / fade_compensate=0.00 / psy_rd=1.10:0.10 / mixed_ref=1 / me_range=48 / chroma_me=1 / trellis=2 / 8x8dct=1 / cqm=0 / deadzone=21,11 / fast_pskip=0 / chroma_qp_offset=-3 / threads=6 / lookahead_threads=1 / sliced_threads=0 / nr=0 / decimate=0 / interlaced=0 / bluray_compat=0 / constrained_intra=0 / bframes=8 / b_pyramid=2 / b_adapt=2 / b_bias=0 / direct=3 / weightb=1 / open_gop=0 / weightp=2 / keyint=240 / keyint_min=24 / scenecut=40 / intra_refresh=0 / rc=2pass / mbtree=0 / bitrate=10473 / ratetol=1.0 / qcomp=0.70 / qpmin=0 / qpmax=69 / qpstep=4 / cplxblur=20.0 / qblur=0.5 / ip_ratio=1.30 / pb_ratio=1.20 / aq=2:0.70
Language : English
Default : Yes
Forced : No
Color primaries : BT.709-5, BT.1361, IEC 61966-2-4, SMPTE RP177
Transfer characteristics : BT.709-5, BT.1361
Matrix coefficients : BT.709-5, BT.1361, IEC 61966-2-4 709, SMPTE RP177
Audio
ID : 2
Format : AC-3
Format/Info : Audio Coding 3
Mode extension : CM (complete main)
Codec ID : A_AC3
Duration : 1h 44mn
Bit rate mode : Constant
Bit rate : 384 Kbps
Channel(s) : 6 channels
Channel positions : Front: L C R, Side: L R, LFE
Sampling rate : 48.0 KHz
Bit depth : 16 bits
Compression mode : Lossy
Stream size : 288 MiB (4%)
Language : Russian
Default : Yes
Forced : No


Скриншоты

       
       

_________________
Человек – это канат, натянутый между животным и сверхчеловеком, – канат над пропастью.
В человеке ценно то, что он мост, а не цель. Фридрих Ницше
Other forum [Profile] [PM]
Display posts from previous:    
Reply to topic

The time now is: Today 09:08

All times are GMT + 3 Hours



You cannot post new topics in this forum
You cannot reply to topics in this forum
You cannot edit your posts in this forum
You cannot delete your posts in this forum
You cannot vote in polls in this forum
You cannot attach files in this forum
You cannot download files in this forum