Today is a free download without charge Download

Bonnie Raitt - Austin City Limits [2012, Blues-Rock, HDTV 1080i]

Reply to topic
 
Author
Message

Omen ®

Longevity: 8 years 3 months

Posts: 181087

Торрент-статистика

Post 10-Jan-2013 14:32

[Quote]

Bonnie Raitt
Austin City Limits
- Жанр: Blues-Rock
Продолжительность: 26:15
Год выпуска: 2012
Описание: Austin City Limits
The Moody Theater
2012-06-27
Tracks:
● Used to Rule the World
● Down to You
● One Million Miles
● You Can't Fail Me Now
● Thing Called Love

Качество: HDTV 1080i
Контейнер: MKV
Видео кодек: MPEG2
Аудио кодек: AC3
Видео: MPEG, 1920x1080, 12,4 mbps, 29,970 fps
Аудио: AC3, 384 kbps, 48 kHz, 6 ch
Аудио 2: MP2, 256 kbps, 48 kHz, 2 ch

Отчёт MediaInfo / BDInfo

ОбщееУникальный идентификатор : 241262321976434042481932003501213049735 (0xB5816EDB5C6080759B6F7E58CE5D6387)Полное имя : H:\CAPTURE\ Bonnie Raitt - Austin City Limits 2012 [HDTV 1080i].mkvФормат : MatroskaВерсия формата : Version 4 / Version 2Размер файла : 2,44 ГбайтПродолжительность : 26 м.Режим общего битрейта : ПеременныйОбщий поток : 13,3 Мбит/секДата кодирования : UTC 2010-02-22 21:41:31Программа кодирования : mkvmerge v5.9.0 ('On The Loose') built on Dec 9 2012 15:37:01Библиотека кодирования : libebml v1.3.0 + libmatroska v1.4.0
ВидеоИдентификатор : 1Формат : MPEG VideoВерсия формата : Version 2Профиль формата : [email protected]Параметр BVOP формата : ДаПараметр матрицы формата : ВыборочнаяПараметр GOP формата : M=3, N=45Идентификатор кодека : V_MPEG2Идентификатор кодека/Информация : MPEG 1 or 2 VideoПродолжительность : 26 м.Вид битрейта : ПеременныйБитрейт : 12,4 Мбит/секМаксимальный битрейт : 24,0 Мбит/секШирина : 1920 пикселейВысота : 1080 пикселейСоотношение сторон : 16:9Описание активного формата : Letterbox 16:9 image, with alternative 4:3 centerРежим частоты кадров : ПостоянныйЧастота кадров : 29,970 кадров/секЦветовое пространство : YUVСубдискретизация насыщенности : 4:2:0Битовая глубина : 8 битТип развёртки : ЧересстрочнаяПорядок развёртки : Верхнее поле первоеМетод сжатия : С потерямиБит/(Пиксели*Кадры) : 0.200Размер потока : 2,28 Гбайт (93%)Язык : EnglishDefault : ДаForced : Нет
Аудио #1Идентификатор : 2Формат : AC-3Формат/Информация : Audio Coding 3Расширение режима : CM (complete main)Параметр Endianness формата : BigРежим смешивания : Header strippingИдентификатор кодека : A_AC3Продолжительность : 26 м.Вид битрейта : ПостоянныйБитрейт : 384 Кбит/секКаналы : 6 каналовРасположение каналов : Front: L C R, Side: L R, LFEЧастота : 48,0 КГцБитовая глубина : 16 битМетод сжатия : С потерямиРазмер потока : 72,1 Мбайт (3%)Заголовок : AC3 6chЯзык : EnglishDefault : ДаForced : Нет
Аудио #2Идентификатор : 3Формат : MPEG AudioВерсия формата : Version 1Профиль формата : Layer 2Режим смешивания : Header strippingИдентификатор кодека : A_MPEG/L2Идентификатор кодека/Подсказка : MP2Продолжительность : 26 м.Вид битрейта : ПостоянныйБитрейт : 256 Кбит/секКаналы : 2 каналаЧастота : 48,0 КГцМетод сжатия : С потерямиРазмер потока : 48,1 Мбайт (2%)Заголовок : MP2 2chЯзык : EnglishDefault : НетForced : Нет

Скриншоты

Other forum [Profile] [PM]
Display posts from previous:    
Reply to topic

The time now is: Today 10:34

All times are GMT + 3 Hours



You cannot post new topics in this forum
You cannot reply to topics in this forum
You cannot edit your posts in this forum
You cannot delete your posts in this forum
You cannot vote in polls in this forum
You cannot attach files in this forum
You cannot download files in this forum