Today is a free download without charge Download

Sting - A Winter's Night... Live From Durham Cathedral [2009, Folk, Classical, HDTV 1080i]

Reply to topic
 
Author
Message

Omen ®

Longevity: 8 years 4 months

Posts: 181087

Торрент-статистика

Post 10-Jan-2013 13:28

[Quote]

Sting - A Winter's Night... Live From Durham Cathedral
Жанр: Folk, Classical
Продолжительность: 01:30:36
Год выпуска: 2010
Описание: В канун Рождества поп- и рок-исполнители как заведенные перепевают новогодний репертуар, повторяющийся из альбома в альбом. Ну, и что с того, что все знают эти песни наизусть, если их перепел всенародный кумир, к примеру, Боб Дилан, диск закономерно сметут поклонники. Проверенный продюсерский ход был предложен и Стингу, но строптивый англичанин по-своему воспринял предложение.
Доп. информация: Треклсит:
01. Gabriel's Message
02. Soul Cake
03. There Is No Rose Of Such Virtue
04. The Snow It Melts The Soonest
05. Christmas At Sea [04:37]
06. Lo How A Rose E'er Blooming
07. Cold Song
08. The Burning Babe
09. Now Winter Comes Slowly
10. The Hounds Of Winter
11. Balulalow
12. Cherry Tree Carol
13. Lullaby For An Anxious Child
14. The Hurdy-Gurdy Man
Качество: HDTV 1080i
Контейнер: M2TS
Видео кодек: AVC
Аудио кодек: MPEG Audio
Видео: AVC, 1920х1080, 16:9, 14,5 Мбит/сек, 25 fps
Аудио: MPEG Audio, 192 Кбит/сек, 48 КГц, 2 канала

Отчёт MediaInfo / BDInfo

ОбщееИдентификатор : 1 (0x1)Полное имя : Sting «If on a Winter’s Night».m2tsФормат : BDAVФормат/Информация : Blu-ray VideoРазмер файла : 9,72 ГбайтПродолжительность : 1 ч. 30 м.Режим общего битрейта : ПеременныйОбщий поток : 15,4 Мбит/сек
ВидеоИдентификатор : 4113 (0x1011)Идентификатор меню : 1 (0x1)Формат : AVCФормат/Информация : Advanced Video CodecПрофиль формата : [email protected]Параметр CABAC формата : ДаПараметр ReFrames формата : 3 кадраИдентификатор кодека : 27Продолжительность : 1 ч. 30 м.Битрейт : 14,5 Мбит/секШирина : 1920 пикселейВысота : 1080 пикселейСоотношение сторон : 16:9Частота кадров : 25,000 кадров/секСтандарт вещания : PALЦветовое пространство : YUVСубдискретизация насыщенности : 4:2:0Битовая глубина : 8 битТип развёртки : ЧересстрочнаяПорядок развёртки : Верхнее поле первоеБит/(Пиксели*Кадры) : 0.281Размер потока : 9,21 Гбайт (95%)Основные цвета : BT.709Характеристики трансфера : BT.709Коэффициенты матрицы : BT.709
АудиоИдентификатор : 4352 (0x1100)Идентификатор меню : 1 (0x1)Формат : MPEG AudioВерсия формата : Version 1Профиль формата : Layer 2Идентификатор кодека : 4Продолжительность : 1 ч. 30 м.Вид битрейта : ПостоянныйБитрейт : 192 Кбит/секКаналы : 2 каналаЧастота : 48,0 КГцМетод сжатия : С потерямиЗадержка видео : 81 мс.Размер потока : 124 Мбайт (1%)Язык : stdЯзык, дополнительно : Clean effects

Скриншоты



Other forum [Profile] [PM]
Display posts from previous:    
Reply to topic

The time now is: Today 18:15

All times are GMT + 3 Hours



You cannot post new topics in this forum
You cannot reply to topics in this forum
You cannot edit your posts in this forum
You cannot delete your posts in this forum
You cannot vote in polls in this forum
You cannot attach files in this forum
You cannot download files in this forum