Today is a free download without charge Download

Высокий блондин в черном ботинке / Follow That Guy with the One Black Shoe / Le grand blond avec une chaussure noire (Ив Робер / Yves Robert) [1972, Франция, комедия, детектив, 720p WEB-DL] DVO (НТВ+) + Dub + Original Fre

Reply to topic
 
Author
Message

Omen ®

Longevity: 8 years 5 months

Posts: 181087

Торрент-статистика

Post 09-Jan-2013 23:44

[Quote]

Высокий блондин в черном ботинке
Le grand blond avec une chaussure noire
- «goodbye blues, hello laughter» - Название: Высокий блондин в черном ботинке
Оригинальное название: Le grand blond avec une chaussure noire
Год выпуска: 1972
Жанр: Комедия
Выпущено: Франция, Films de la Guéville, Gaumont, Madeleine Films
Описание фильма:
Рассеянного скрипача-виртуоза Франсуа Перрена принимают за секретного суперагента. Высокий блондин оказывается крепким орешком. Он с легкостью избегает всех опасностей, даже не подозревая о них...
Режиссер: Ив Робер
В ролях: Пьер Ришар, Бернар Блие, Жан Рошфор, Мирей Дарк, Колетт Кастель, Жан Обе, Робер Кастель, Жан Содрэ, Роже Качча, Морис Барье, Робер Дальбан, Арлетт Балкис, Таня Балашова, Поль Ле Персон, Жан Карме, Стефан Буи, Жан-Мишель Моле, Марсель Гассук, Жерар Муасан, Ив Робер, Клодин Беккари, Ксавье Желен, Жерар Мажа
Продолжительность: 01:29:19
Перевод: Дублированный, Многоголосый закадровый
Субтитры: нет

Рейтинг MPAA: PG - Рекомендуется присутствие родителей!!!
Дата мировой премьеры: 6 декабря 1972
Дата DVD премьеры: 23 октября 2008, «Союз-Видео»
Видеокодек: MPEG-4 AVC
Битрейт видео: ~ 4000 Кбит/с
Размер кадра: 1208x720
Качество видео: WEB-DL
Аудио:
1. Dolby Digital Русский 2.0 / 48 kHz / 192 kbps (Многоголосый закадровый, Союз Видео)
2. Dolby Digital Русский 2.0 / 48 kHz / 192 kbps (Дублированный)
3. Dolby Digital Французский 2.0 / 48 kHz / 160 kbps

Награды и номинации

Берлинский кинофестиваль, 1973 год
Победитель (1):
Серебряный Медведь
Номинации (1):
Золотой Медведь

Из книги «3500 кинорецензий»

Наивный и рассеянный скрипач Франсуа Перрен неожиданно и помимо своей воли становится суперагентом, замешанным в опасные дела, которыми заняты две соперничающие секретные службы.
Эксцентрическая комедия Ива Робера, созданная по сценарию известного комедиографа Франсиса Вебера, впервые предоставила звёздный шанс (хотя ему уже было в тот момент 38 лет!) оригинальному французскому комику Пьеру Ришару, незамедлительно воспользовавшемуся этой удачей. Актёр выбрал забавную маску непутёвого, невезучего типа, который вечно попадает в идиотские ситуации и с полным недоумением на лице всё же выпутывается из них живёхоньким и почти не поцарапанным. Правда, ещё виртуознее Пьер Ришар играл в странной паре с невозмутимым и решительным в действиях Жераром Депардьё в более поздней комедийной трилогии («Невезучие»-«Папаши»-«Беглецы»), поставленной уже самим Вебером.
А в начале 70-х годов, взойдя на кинонебосклон, пусть и не соперничая по популярности с главным французским комиком Луи де Фюнесом и даже значительно уступая кратковременной славе группы Шарло, Ришар «не упускал из виду» (если воспользоваться названием фильма Клода Зиди с участием этого актёра) зрительский успех. И совершенствовал найденное амплуа недотёпы — как в прямом продолжении («Возвращение высокого блондина»), так и в различных вариациях (например, в «Уколе зонтиком» Жерара Ури). А «Высокий блондин в чёрном ботинке» (был повторен в 1985 году в США под названием «Мужчина в красном ботинке») даже удостоился приза на престижном кинофестивале в Западном Берлине.

MediaInfo

General
Complete name : O:\Le.Grand.blond.avec.une.chaussure.noire.1973.720p.WEB-DL.2xRus.Fre.HDCLUB.mkv
Format : Matroska
File size : 2.50 MiB
Duration : 1h 29mn
Overall bit rate : 3 913 bps
Movie name : Le Grand blond avec une chaussure noire (1973)
Encoded date : UTC 2010-02-22 21:41:31
Writing application : mkvmerge v5.9.0 ('On The Loose') built on Dec 9 2012 15:37:01
Writing library : libebml v1.3.0 + libmatroska v1.4.0
Video
ID : 1
Format : AVC
Format/Info : Advanced Video Codec
Format profile : [email protected]
Format settings, CABAC : No
Format settings, ReFrames : 2 frames
Muxing mode : Container [email protected]
Codec ID : V_MPEG4/ISO/AVC
Duration : 1h 29mn
Width : 1 208 pixels
Height : 720 pixels
Display aspect ratio : 1.678
Frame rate : 24.000 fps
Resolution : 24 bits
Colorimetry : 4:2:0
Scan type : Progressive
Language : French
colour_primaries : BT.709-5, BT.1361, IEC 61966-2-4, SMPTE RP177
transfer_characteristics : BT.709-5, BT.1361
matrix_coefficients : BT.709-5, BT.1361, IEC 61966-2-4 709, SMPTE RP177
Audio #1
ID : 2
Format : AC-3
Format/Info : Audio Coding 3
Format profile : Dolby Digital
Codec ID : A_AC3
Duration : 1h 29mn
Bit rate mode : Constant
Bit rate : 192 Kbps
Channel(s) : 2 channels
Channel positions : L R
Sampling rate : 48.0 KHz
Stream size : 123 MiB
Title : AC3 48kHz 2.0 192 kbps MVO Soyuz Video
Language : Russian
Audio #2
ID : 3
Format : AC-3
Format/Info : Audio Coding 3
Format profile : Dolby Digital
Codec ID : A_AC3
Duration : 1h 29mn
Bit rate mode : Constant
Bit rate : 192 Kbps
Channel(s) : 2 channels
Channel positions : L R
Sampling rate : 48.0 KHz
Stream size : 123 MiB
Title : AC3 48kHz 2.0 192 kbps Dub
Language : Russian
Audio #3
ID : 4
Format : AAC
Format/Info : Advanced Audio Codec
Format version : Version 4
Format profile : LC
Format settings, SBR : No
Codec ID : A_AAC
Duration : 1h 29mn
Channel(s) : 2 channels
Channel positions : L R
Sampling rate : 48.0 KHz
Resolution : 16 bits
Title : AAC 2.0 VBR Original
Language : French
Menu
00:00:00.000 : en:GГ©nГ©rique de dГ©but
00:02:24.000 : en:Une casserole aux fesses
00:06:59.000 : en:un piГЁge Г cons
00:11:51.000 : en:Le grand blond avec une chaussure noire
00:16:07.000 : en:François Perrin
00:18:30.000 : en:Sous surveillance
00:27:11.000 : en:une vie sans histoire
00:29:17.000 : en:Le Gugusse
00:33:09.000 : en:Paulette
00:37:52.000 : en:Maurice
00:41:53.000 : en:Paulette me trompe avec un cheval
00:46:15.000 : en:La carte MaГ®tresse de Milan
00:49:08.000 : en:Mozart MassacrГ©
00:52:18.000 : en:La robe
00:56:01.000 : en:Il est trГ©s fort
01:05:09.000 : en:Le secret de Perrin
01:07:57.000 : en:Liquidez Le !
01:12:22.000 : en:RГЁglement de compte
01:16:17.000 : en:Maurice a des visions
01:21:57.000 : en:Milan entre en scГЁne
01:25:34.000 : en:Il se débrouille pas si mal, ce garçon
01:28:08.000 : en:GГ©nГ©rique de fin
Скриншоты:
           
-
Other forum [Profile] [PM]
Display posts from previous:    
Reply to topic

The time now is: Today 06:50

All times are GMT + 3 Hours



You cannot post new topics in this forum
You cannot reply to topics in this forum
You cannot edit your posts in this forum
You cannot delete your posts in this forum
You cannot vote in polls in this forum
You cannot attach files in this forum
You cannot download files in this forum