Today is a free download without charge Download

Евгений Коноплев | CCNA за 4 месяца - пошаговое руководство [2011] PCRec

Reply to topic
 
Author
Message

Omen ®

Longevity: 7 years 10 months

Posts: 181087

Торрент-статистика

Post 09-Jan-2013 23:19

[Quote]

-Евгений Коноплев | CCNA за 4 месяца - пошаговое руководство + методичка [2011] PCRec- Автор (издатель): Евгений Коноплев
Название: CCNA за 4 месяца - пошаговое руководство
Год: 2011
Жанр: Обучающие материалы
Язык: Русский
Формат: AVI + PDF
Описание:
Цель данного курса — максимально быстро и просто подготовить Вас к прохождению сертификации CCNA. Хотя CCNA — это всего лишь первая ступень в сертификациях Cisco (CCENT не беру в расчет, стоит сразу сдавать на CCNA), она является важнейшим фундаментом на пути к более серьезным сертификациям.
Правда заключается в том, что с нуля подготовиться и сдать на CCNA гораздо сложнее, чем будучи CCNA сдать на CCNP (Cisco Certified Network Professional), когда уже есть понимание, что такое сертификация от Cisco и как её проходить. Именно поэтому мы решили разработать данный курс.
Продолжительность: 01:22:47
Качество видео: PCRec
Видеокодек: TechSmith Screen Capture
Битрейт видео: ~2 124 b/s
Размер кадра: 940 х 754
Аудиокодек: MP3
Битрейт аудио: 128 kb/s

Содержание:

С чего начать?
Возможные пути развития карьеры с Cisco
Требования для сертификации CCNA
Виды экзаменов
Что лучше выбрать?
Способы подготовки к CCNA
Три главных причины медленной подготовки
На каком языке сдавать?
Где можно сдать экзамен и сколько стоит
Как проходит процесс сдачи экзамена
Темы экзамена
Книги для подготовки
Какие книги нельзя читать
Видеоматериалы
Симуляторы и эмуляторы
— Boson NetSim
— Dynamips. Работа в условиях реального Cisco IOS
— GNS3
— Packet Tracer
— CCNA Network Visualizer 6.0
Самостоятельно проходим лабораторные работы
Тематические ресурсы
Тесты для самопроверки
План подготовки на каждый день
Управление собственным временем
Техники эффективной подготовки
Что дальше?
И многое другое...

Mediainfo

General
Complete name : /Evgenij Konoplev - CCNAFor4Months/CCNAFor4Months-video.avi
Format : AVI
Format/Info : Audio Video Interleave
File size : 80.5 MiB
Duration : 1h 22mn
Overall bit rate : 136 Kbps
Writing application : VirtualDubModRus 1.5.10.2 (build 2542/release)
Writing library : VirtualDubMod build 2542/release
Video
ID : 0
Format : TechSmith
Codec ID : tscc
Codec ID/Info : TechSmith Screen Capture
Duration : 1h 22mn
Bit rate : 2 124 bps
Width : 940 pixels
Height : 754 pixels
Display aspect ratio : 5:4
Frame rate : 15.000 fps
Bit depth : 8 bits
Bits/(Pixel*Frame) : 0.000
Stream size : 1.26 MiB (2%)
Audio
ID : 1
Format : MPEG Audio
Format version : Version 1
Format profile : Layer 3
Codec ID : 55
Codec ID/Hint : MP3
Duration : 1h 22mn
Bit rate mode : Constant
Bit rate : 128 Kbps
Channel(s) : 2 channels
Sampling rate : 44.1 KHz
Compression mode : Lossy
Stream size : 75.8 MiB (94%)
Alignment : Split accross interleaves
Interleave, duration : 67 ms (1.00 video frame)
Interleave, preload duration : 500 ms
Скриншоты:
-
Other forum [Profile] [PM]
Similar theme
Forum Topic Author Torrent Replies Last Post
./templates/default/images/folder_dl.gif Обучающее видео Евгений Попов | Настройка и оптимизация Windows 10 (2017) PCRec Omen
2 | 0

0 | 5139

90

2016-03-09 18:12
Omen Latest
./templates/default/images/folder_dl.gif Шансон Жека ( Евгений Григорьев ) - 6 Альбомов (2002 - 2006) [FLAC|Lossless|tracks + .cue]<Шансон> Soldat_5
1 | 0

0 | 941

0

2020-08-16 14:01
Soldat_5 Latest
Display posts from previous:    
Reply to topic

The time now is: Today 22:06

All times are GMT + 3 Hours



You cannot post new topics in this forum
You cannot reply to topics in this forum
You cannot edit your posts in this forum
You cannot delete your posts in this forum
You cannot vote in polls in this forum
You cannot attach files in this forum
You cannot download files in this forum