Today is a free download without charge Download

University of Washington | Programming Languages [2013] PCRec [En] (обновляемая)

Reply to topic
 
Author
Message

Omen ®

Longevity: 7 years 10 months

Posts: 181087

Торрент-статистика

Post 09-Jan-2013 23:18

[Quote]

-University of Washington | Programming Languages [2013] PCRec [En] (обновляемая)- Автор (режиссер): University of Washington
Название: Programming Languages
Год выпуска: 2013
Жанр: Программирование
Язык: Английский
Качество видео: PCRec
Видеокодек: AVC
Битрейт видео: ~117 kbps
Размер кадра: 960 x 540
Аудиокодек: AAC
Битрейт аудио: 108 kbps
Описание:
Курс по языкам программирования от университета Вашингтона. Рассматриваются языки Standard ML, Ruby и Racket (один из диалектов Lisp). Кроме видео в раздаче имеются слайды.Примечание: раздача обновляемая! (Обновляться будет примерно каждый вторник)

Mediainfo:

General
Complete name : C:\Users\Fire Lizard\Downloads\Programming Languages\Software Installation Videos\1 - 4 - SML Mode installation.mp4
Format : MPEG-4
Format profile : Base Media
Codec ID : isom
File size : 6.45 MiB
Duration : 3mn 52s
Overall bit rate mode : Variable
Overall bit rate : 233 Kbps
Writing application : Lavf53.29.100
Video
ID : 1
Format : AVC
Format/Info : Advanced Video Codec
Format profile : [url=mailto:[email protected]][email protected][/url]
Format settings, CABAC : Yes
Format settings, ReFrames : 4 frames
Codec ID : avc1
Codec ID/Info : Advanced Video Coding
Duration : 3mn 52s
Bit rate : 117 Kbps
Width : 960 pixels
Height : 540 pixels
Display aspect ratio : 16:9
Frame rate mode : Constant
Frame rate : 30.000 fps
Color space : YUV
Chroma subsampling : 4:2:0
Bit depth : 8 bits
Scan type : Progressive
Bits/(Pixel*Frame) : 0.008
Stream size : 3.24 MiB (50%)
Writing library : x264 core 120 r2120 0c7dab9
Encoding settings : cabac=1 / ref=3 / deblock=1:0:0 / analyse=0x3:0x113 / me=hex / subme=7 / psy=1 / psy_rd=1.00:0.00 / mixed_ref=1 / me_range=16 / chroma_me=1 / trellis=1 / 8x8dct=1 / cqm=0 / deadzone=21,11 / fast_pskip=1 / chroma_qp_offset=-2 / threads=12 / sliced_threads=0 / nr=0 / decimate=1 / interlaced=0 / bluray_compat=0 / constrained_intra=0 / bframes=3 / b_pyramid=2 / b_adapt=1 / b_bias=0 / direct=1 / weightb=1 / open_gop=0 / weightp=2 / keyint=250 / keyint_min=25 / scenecut=40 / intra_refresh=0 / rc_lookahead=40 / rc=crf / mbtree=1 / crf=28.0 / qcomp=0.60 / qpmin=0 / qpmax=69 / qpstep=4 / ip_ratio=1.40 / aq=1:1.00
Audio
ID : 2
Format : AAC
Format/Info : Advanced Audio Codec
Format profile : LC
Codec ID : 40
Duration : 3mn 52s
Bit rate mode : Variable
Bit rate : 108 Kbps
Maximum bit rate : 128 Kbps
Channel(s) : 2 channels
Channel positions : Front: L R
Sampling rate : 44.1 KHz
Compression mode : Lossy
Delay relative to video : -2ms
Stream size : 2.99 MiB (46%)
Скриншоты:
       
Время раздачи: 24/7 - круглосуточно
Other forum [Profile] [PM]
Display posts from previous:    
Reply to topic

The time now is: Today 05:51

All times are GMT + 3 Hours



You cannot post new topics in this forum
You cannot reply to topics in this forum
You cannot edit your posts in this forum
You cannot delete your posts in this forum
You cannot vote in polls in this forum
You cannot attach files in this forum
You cannot download files in this forum