Today is a free download without charge Download

Resident Evil: Degeneration / Обитель зла: Вырождение [2008, MV, 1 из 1] BDRip rus

Reply to topic
 
Author
Message

Omen ®

Longevity: 9 years 2 months

Posts: 181086

Торрент-статистика

Post 09-Jan-2013 23:15

[Quote]

-バイオハザード ディジェネレーション / Resident Evil: Degeneration / Обитель зла: Вырождение-
Жанр: Приключения, фантастика, ужасы
Тип: Полнометражный фильм
Продолжительность: 1 ч. 32 м.
Дата премьеры / период выхода: 18.10.2008
Режиссер: Камия Макото
Автор оригинала: Суга Сётаро
Производство/студия:
Качество видео: BDRip
Видео: MPEG-4, 720x400, 25,000 кадра/сек, ~1810 кбит/с
Аудио: AC-3, 48 КГц, 6 ch, ~448 кбит/с Звук: Русский (поверх японского), Профессиональный (многоголосый).
Тип субтитров: Отсутствуют

MediaInfo

Код:
Общее
Полное имя                               : R:\torrent\Resident Evil Degeneration.avi
Формат                                   : AVI
Формат/Информация                        : Audio Video Interleave
Размер файла                             : 1,46 Гбайт
Продолжительность                        : 1 ч. 32 м.
Общий поток                              : 2268 Кбит/сек
Программа кодирования                    : VirtualDubMod 1.5.10.2 (build 2540/release)
Библиотека кодирования                   : VirtualDubMod build 2540/release
Видео
Идентификатор                            : 0
Формат                                   : MPEG-4 Visual
Профиль формата                          : Advanced [email protected]
Параметр BVOP формата                    : 1
Параметр QPel формата                    : Нет
Параметр GMC формата                     : Без точки перехода
Параметр матрицы формата                 : Выборочная
Идентификатор кодека                     : XVID
Идентификатор кодека/Подсказка           : XviD
Продолжительность                        : 1 ч. 32 м.
Битрейт                                  : 1810 Кбит/сек
Ширина                                   : 720 пикселей
Высота                                   : 400 пикселей
Соотношение сторон                       : 16:9
Частота кадров                           : 25,000 кадров/сек
Цветовое пространство                    : YUV
Субдискретизация насыщенности            : 4:2:0
Битовая глубина                          : 8 бит
Тип развёртки                            : Прогрессивная
Метод сжатия                             : С потерями
Бит/(Пиксели*Кадры)                      : 0.251
Размер потока                            : 1,16 Гбайт (80%)
Библиотека кодирования                   : XviD 1.2.1 (UTC 2008-12-04)
Аудио
Идентификатор                            : 1
Формат                                   : AC-3
Формат/Информация                        : Audio Coding 3
Расширение режима                        : CM (complete main)
Параметр Endianness формата              : Big
Идентификатор кодека                     : 2000
Продолжительность                        : 1 ч. 32 м.
Вид битрейта                             : Постоянный
Битрейт                                  : 448 Кбит/сек
Каналы                                   : 6 каналов
Расположение каналов                     : Front: L C R, Side: L R, LFE
Частота                                  : 48,0 КГц
Битовая глубина                          : 16 бит
Метод сжатия                             : С потерями
Задержка видео                           : 22 мс.
Размер потока                            : 295 Мбайт (20%)
Выравнивание                             : Разделение по промежуткам
Продолжительность промежутка             : 40  мс. (1,00 видеокадр)
Время предзагрузки промежутка            : 500  мс.

Описание:
Нападение зомби приносит хаос в аэропорт Харвардвиль. Клэр Рэдфилд и Леон Кеннеди, боровшиеся с корпорацией «Umbrella» во время трагедии в Раккун Сити 7 лет назад, вновь вернулись. Они готовы к битве с противником, который ищет мести после смерти его семьи в Раккун Сити. Смертельный G-вирус выпущен на свободу и рождает нового мутировавшего монстра. Уничтожат ли Клэр и Леон этот вирус до того, как история повторится?Ссылки:
Ani-DB ::: World Art
Скриншоты:
       
       
Время раздачи: 24/7 до первых 3х скачавших
P.S. Biohazard 4: Incubate - OVA (1 эп.), адаптация игры, 2006 если есть у кого-нибудь, огромная просьба выложить
Other forum [Profile] [PM]
Display posts from previous:    
Reply to topic

The time now is: Today 07:42

All times are GMT + 3 Hours



You cannot post new topics in this forum
You cannot reply to topics in this forum
You cannot edit your posts in this forum
You cannot delete your posts in this forum
You cannot vote in polls in this forum
You cannot attach files in this forum
You cannot download files in this forum