Today is a free download without charge Download

Gekijouban Break Blade / Broken Blade / Сломанный Меч [2010-2011, MV, 6 из 6] BDrip 720p raw + rus

Reply to topic
 
Author
Message

Omen ®

Longevity: 9 years 2 months

Posts: 181086

Торрент-статистика

Post 09-Jan-2013 23:15

[Quote]

-Gekijouban Break Blade: Dai Roku Shou - Doukoku no Toride
劇場版 ブレイク ブレイド 第一章/覚醒ノ刻
Broken Blade: First Chapter - Hour of Awakening
Сломанный Клинок: Час Пробуждения (фильм первый)
-
Жанр: Приключения, фэнтези, меха
Тип: Короткометражный фильм
Продолжительность: 50 мин.
Дата премьеры / период выхода: 29.05.2010
Режиссер: Амино Тэцуро
Автор оригинала: Ёсинага Юносукэ
Производство/студия:
Ссылки: Ani-DB ::: World Art
Качество видео: BDRip
Видео: AVC, 1280x720, 16:9, 23,976 кадра/сек, ~2650 кбит/с
Аудио #1: DTS, 48 КГц, 6 ch, ~1509 кбит/с Звук: Русский (поверх японского), Профессиональный (двухголосый). Озвучка: BBC Saint-Petersburg
Аудио #2: DTS, 48 КГц, 6 ch, ~1509 кбит/с Звук: Японский.
Аудио #3: AC-3, 48 КГц, 2 ch, ~448 кбит/с Звук: Японский (комментарий)
Тип субтитров #1: Русские в контейнере Перевод: Lyrics OP&ED (GMC)
Тип субтитров #2: Русские в контейнере Перевод: Genuine Male Club & Advantage
Тип субтитров #3: Русские в контейнере Перевод: Someone & powerwar
Тип субтитров #4: Русские в контейнере Перевод: Action Manga Team
Тип субтитров #5: Английские в контейнере

MediaInfo

Код:
Общее
Уникальный идентификатор                 : 204764597260303204850078318087526751266 (0x9A0C3A18D4E79E0EBB6F690E5B0D1C22)
Полное имя                               : R:\torrent\Gekijouban Break Blade Dai Roku Shou - Doukoku no Toride\Сломанный Клинок Час Пробуждения (фильм первый) BDRip 720р.mkv
Формат                                   : Matroska
Версия формата                           : Version 2
Размер файла                             : 2,23 Гбайт
Продолжительность                        : 51 м.
Общий поток                              : 6241 Кбит/сек
Название фильма                          : Broken Blade: First Chapter - Hour of Awakening (2010) / PlayHD
Дата кодирования                         : UTC 2011-02-17 14:45:15
Программа кодирования                    : mkvmerge v4.0.0 ('The Stars were mine') сборка от Jun  6 2010 16:18:42
Библиотека кодирования                   : libebml v1.0.0 + libmatroska v1.0.0
Attachment                               : Yes / Yes / Yes / Yes / Yes / Yes / Yes / Yes / Yes / Yes
Видео
Идентификатор                            : 1
Формат                                   : AVC
Формат/Информация                        : Advanced Video Codec
Профиль формата                          : [url=mailto:[email protected]][email protected][/url]
Параметр CABAC формата                   : Да
Параметр ReFrames формата                : 9 кадров
Идентификатор кодека                     : V_MPEG4/ISO/AVC
Продолжительность                        : 51 м.
Битрейт                                  : 2650 Кбит/сек
Ширина                                   : 1280 пикселей
Высота                                   : 720 пикселей
Соотношение сторон                       : 16:9
Режим частоты кадров                     : Постоянный
Частота кадров                           : 23,976 кадра/сек
Цветовое пространство                    : YUV
Субдискретизация насыщенности            : 4:2:0
Битовая глубина                          : 8 бит
Тип развёртки                            : Прогрессивная
Бит/(Пиксели*Кадры)                      : 0.120
Размер потока                            : 972 Мбайт (42%)
Заголовок                                : [Encoded by gg]
Библиотека кодирования                   : x264 core 104 r1683 62997d6
Настройки программы                      : cabac=1 / ref=9 / deblock=1:-3:-3 / analyse=0x3:0x113 / me=umh / subme=10 / psy=1 / psy_rd=1.00:0.00 / mixed_ref=1 / me_range=32 / chroma_me=1 / trellis=2 / 8x8dct=1 / cqm=0 / deadzone=21,11 / fast_pskip=1 / chroma_qp_offset=-2 / threads=12 / sliced_threads=0 / nr=0 / decimate=1 / interlaced=0 / constrained_intra=0 / bframes=6 / b_pyramid=2 / b_adapt=2 / b_bias=0 / direct=3 / weightb=1 / open_gop=0 / weightp=2 / keyint=250 / keyint_min=23 / scenecut=40 / intra_refresh=0 / rc=crf / mbtree=0 / crf=16.0 / qcomp=0.60 / qpmin=10 / qpmax=51 / qpstep=4 / ip_ratio=1.40 / pb_ratio=1.30 / aq=1:0.80
Default                                  : Нет
Forced                                   : Да
Аудио #1
Идентификатор                            : 2
Формат                                   : DTS
Формат/Информация                        : Digital Theater Systems
Режим                                    : 16
Параметр Endianness формата              : Big
Идентификатор кодека                     : A_DTS
Продолжительность                        : 51 м.
Вид битрейта                             : Постоянный
Битрейт                                  : 1509 Кбит/сек
Каналы                                   : 6 каналов
Расположение каналов                     : Front: L C R, Side: L R, LFE
Частота                                  : 48,0 КГц
Битовая глубина                          : 24 бит
Метод сжатия                             : С потерями
Размер потока                            : 553 Мбайт (24%)
Заголовок                                : DTS 5.1 @ 1536 Kbps |DVO, BBC Spb|
Язык                                     : Russian
Default                                  : Нет
Forced                                   : Да
Аудио #2
Идентификатор                            : 3
Формат                                   : DTS
Формат/Информация                        : Digital Theater Systems
Режим                                    : 16
Параметр Endianness формата              : Big
Идентификатор кодека                     : A_DTS
Продолжительность                        : 51 м.
Вид битрейта                             : Постоянный
Битрейт                                  : 1509 Кбит/сек
Каналы                                   : 6 каналов
Расположение каналов                     : Front: L C R, Side: L R, LFE
Частота                                  : 48,0 КГц
Битовая глубина                          : 24 бит
Метод сжатия                             : С потерями
Размер потока                            : 553 Мбайт (24%)
Заголовок                                : DTS 5.1 @ 1536 Kbps |Original|
Язык                                     : Japanese
Default                                  : Нет
Forced                                   : Нет
Аудио #3
Идентификатор                            : 4
Формат                                   : AC-3
Формат/Информация                        : Audio Coding 3
Расширение режима                        : CM (complete main)
Параметр Endianness формата              : Big
Идентификатор кодека                     : A_AC3
Продолжительность                        : 51 м.
Вид битрейта                             : Постоянный
Битрейт                                  : 448 Кбит/сек
Каналы                                   : 2 канала
Расположение каналов                     : Front: L R
Частота                                  : 48,0 КГц
Битовая глубина                          : 16 бит
Метод сжатия                             : С потерями
Размер потока                            : 164 Мбайт (7%)
Заголовок                                : AC3 2.0 @ 448 Kbps |Commentary|
Язык                                     : Japanese
Default                                  : Нет
Forced                                   : Нет
Текст #1
Идентификатор                            : 5
Формат                                   : ASS
Идентификатор кодека                     : S_TEXT/ASS
Идентификатор кодека/Информация          : Advanced Sub Station Alpha
Метод сжатия                             : Без потерь
Заголовок                                : Lyrics OP&ED (GMC)
Язык                                     : Russian
Default                                  : Нет
Forced                                   : Да
Текст #2
Идентификатор                            : 6
Формат                                   : ASS
Идентификатор кодека                     : S_TEXT/ASS
Идентификатор кодека/Информация          : Advanced Sub Station Alpha
Метод сжатия                             : Без потерь
Заголовок                                : Genuine Male Club & Advantage
Язык                                     : Russian
Default                                  : Нет
Forced                                   : Нет
Текст #3
Идентификатор                            : 7
Формат                                   : ASS
Идентификатор кодека                     : S_TEXT/ASS
Идентификатор кодека/Информация          : Advanced Sub Station Alpha
Метод сжатия                             : Без потерь
Заголовок                                : Someone & powerwar
Язык                                     : Russian
Default                                  : Нет
Forced                                   : Нет
Текст #4
Идентификатор                            : 8
Формат                                   : ASS
Идентификатор кодека                     : S_TEXT/ASS
Идентификатор кодека/Информация          : Advanced Sub Station Alpha
Метод сжатия                             : Без потерь
Заголовок                                : Action Manga Team
Язык                                     : Russian
Default                                  : Да
Forced                                   : Нет
Текст #5
Идентификатор                            : 9
Формат                                   : ASS
Идентификатор кодека                     : S_TEXT/ASS
Идентификатор кодека/Информация          : Advanced Sub Station Alpha
Метод сжатия                             : Без потерь
Заголовок                                : English
Язык                                     : English
Default                                  : Нет
Forced                                   : Нет
Меню
00:00:00.000                             : en:chapter 01
00:04:41.656                             : en:chapter 02
00:06:29.347                             : en:chapter 03
00:13:21.092                             : en:chapter 04
00:25:20.477                             : en:chapter 05
00:33:19.623                             : en:chapter 06
00:47:37.938                             : en:chapter 07
00:50:43.666                             : en:chapter 08

Описание:
Мир, где больше нет нефти, где люди наделены способностью управлять кварцем и с помощью этого продвигают цивилизацию. Но средь враждующих государств появляется тот кого величают "неспособным" - человек, который не наделён магией. И вот однажды ему предстоит оседлать Древнего Голема, заточенного почти под него и остановить ненужное кровопролитие.Скриншоты:
       
       
-Gekijouban Break Blade: Dai Roku Shou - Doukoku no Toride
劇場版 ブレイク ブレイド 第二章/訣別ノ路
Broken Blade: Second Chapter - The Split Path
Сломанный Клинок: Распутье (фильм второй)
-
Жанр: Приключения, фэнтези, меха
Тип: Короткометражный фильм
Продолжительность: 50 мин.
Дата премьеры / период выхода: 26.06.2010
Режиссер: Амино Тэцуро
Автор оригинала: Ёсинага Юносукэ
Производство/студия:
Ссылки: Ani-DB ::: World Art
Качество видео: BDRip
Видео: AVC, 1280x720, 16:9, 23,976 кадра/сек, ~2640 кбит/с
Аудио #1: DTS, 48 КГц, 6 ch, ~1509 кбит/с Звук: Русский (поверх японского), Профессиональный (двухголосый). Озвучка: BBC Saint-Petersburg
Аудио #2: DTS, 48 КГц, 6 ch, ~1509 кбит/с Звук: Японский.
Аудио #3: AC-3, 48 КГц, 2 ch, ~448 кбит/с Звук: Японский (комментарий)
Тип субтитров #1: Русские в контейнере Перевод: Lyrics OP&ED (GMC)
Тип субтитров #2: Русские в контейнере Перевод: Genuine Male Club & Advantage
Тип субтитров #3: Русские в контейнере Перевод: Someone & powerwar
Тип субтитров #4: Русские в контейнере Перевод: Action Manga Team
Тип субтитров #5: Английские в контейнере

MediaInfo

Код:
Общее
Уникальный идентификатор                 : 185788476452265518473148634669780594826 (0x8BC58F1B6B96BFDFB7C8592EDE18708A)
Полное имя                               : R:\torrent\Gekijouban Break Blade Dai Roku Shou - Doukoku no Toride\Сломанный Клинок Распутье (фильм второй) BDRip 720р.mkv
Формат                                   : Matroska
Версия формата                           : Version 2
Размер файла                             : 2,22 Гбайт
Продолжительность                        : 51 м.
Общий поток                              : 6230 Кбит/сек
Название фильма                          : Broken Blade: Second Chapter - The Split Path (2010) / PlayHD
Дата кодирования                         : UTC 2011-02-17 14:53:58
Программа кодирования                    : mkvmerge v4.0.0 ('The Stars were mine') сборка от Jun  6 2010 16:18:42
Библиотека кодирования                   : libebml v1.0.0 + libmatroska v1.0.0
Attachment                               : Yes / Yes / Yes / Yes / Yes / Yes / Yes / Yes / Yes / Yes
Видео
Идентификатор                            : 1
Формат                                   : AVC
Формат/Информация                        : Advanced Video Codec
Профиль формата                          : [url=mailto:[email protected]][email protected][/url]
Параметр CABAC формата                   : Да
Параметр ReFrames формата                : 9 кадров
Идентификатор кодека                     : V_MPEG4/ISO/AVC
Продолжительность                        : 51 м.
Битрейт                                  : 2640 Кбит/сек
Ширина                                   : 1280 пикселей
Высота                                   : 720 пикселей
Соотношение сторон                       : 16:9
Режим частоты кадров                     : Постоянный
Частота кадров                           : 23,976 кадра/сек
Цветовое пространство                    : YUV
Субдискретизация насыщенности            : 4:2:0
Битовая глубина                          : 8 бит
Тип развёртки                            : Прогрессивная
Бит/(Пиксели*Кадры)                      : 0.119
Размер потока                            : 964 Мбайт (42%)
Заголовок                                : [Encoded by gg]
Библиотека кодирования                   : x264 core 104 r1703 cd21d05
Настройки программы                      : cabac=1 / ref=9 / deblock=1:-3:-3 / analyse=0x3:0x113 / me=umh / subme=10 / psy=1 / psy_rd=1.00:0.00 / mixed_ref=1 / me_range=32 / chroma_me=1 / trellis=2 / 8x8dct=1 / cqm=0 / deadzone=21,11 / fast_pskip=1 / chroma_qp_offset=-2 / threads=12 / sliced_threads=0 / nr=0 / decimate=1 / interlaced=0 / constrained_intra=0 / bframes=6 / b_pyramid=2 / b_adapt=2 / b_bias=0 / direct=3 / weightb=1 / open_gop=0 / weightp=2 / keyint=250 / keyint_min=23 / scenecut=40 / intra_refresh=0 / rc=crf / mbtree=0 / crf=16.0 / qcomp=0.60 / qpmin=10 / qpmax=51 / qpstep=4 / ip_ratio=1.40 / pb_ratio=1.30 / aq=1:0.80
Default                                  : Нет
Forced                                   : Да
Аудио #1
Идентификатор                            : 2
Формат                                   : DTS
Формат/Информация                        : Digital Theater Systems
Режим                                    : 16
Параметр Endianness формата              : Big
Идентификатор кодека                     : A_DTS
Продолжительность                        : 51 м.
Вид битрейта                             : Постоянный
Битрейт                                  : 1509 Кбит/сек
Каналы                                   : 6 каналов
Расположение каналов                     : Front: L C R, Side: L R, LFE
Частота                                  : 48,0 КГц
Битовая глубина                          : 24 бит
Метод сжатия                             : С потерями
Размер потока                            : 551 Мбайт (24%)
Заголовок                                : DTS 5.1 @ 1536 Kbps |DVO, BBC Spb|
Язык                                     : Russian
Default                                  : Нет
Forced                                   : Да
Аудио #2
Идентификатор                            : 3
Формат                                   : DTS
Формат/Информация                        : Digital Theater Systems
Режим                                    : 16
Параметр Endianness формата              : Big
Идентификатор кодека                     : A_DTS
Продолжительность                        : 51 м.
Вид битрейта                             : Постоянный
Битрейт                                  : 1509 Кбит/сек
Каналы                                   : 6 каналов
Расположение каналов                     : Front: L C R, Side: L R, LFE
Частота                                  : 48,0 КГц
Битовая глубина                          : 24 бит
Метод сжатия                             : С потерями
Размер потока                            : 551 Мбайт (24%)
Заголовок                                : DTS 5.1 @ 1536 Kbps |Original|
Язык                                     : Japanese
Default                                  : Нет
Forced                                   : Нет
Аудио #3
Идентификатор                            : 4
Формат                                   : AC-3
Формат/Информация                        : Audio Coding 3
Расширение режима                        : CM (complete main)
Параметр Endianness формата              : Big
Идентификатор кодека                     : A_AC3
Продолжительность                        : 51 м.
Вид битрейта                             : Постоянный
Битрейт                                  : 448 Кбит/сек
Каналы                                   : 2 канала
Расположение каналов                     : Front: L R
Частота                                  : 48,0 КГц
Битовая глубина                          : 16 бит
Метод сжатия                             : С потерями
Размер потока                            : 164 Мбайт (7%)
Заголовок                                : AC3 2.0 @ 448 Kbps |Commentary|
Язык                                     : Japanese
Default                                  : Нет
Forced                                   : Нет
Текст #1
Идентификатор                            : 5
Формат                                   : ASS
Идентификатор кодека                     : S_TEXT/ASS
Идентификатор кодека/Информация          : Advanced Sub Station Alpha
Метод сжатия                             : Без потерь
Заголовок                                : Lyrics OP&ED (GMC)
Язык                                     : Russian
Default                                  : Нет
Forced                                   : Да
Текст #2
Идентификатор                            : 6
Формат                                   : ASS
Идентификатор кодека                     : S_TEXT/ASS
Идентификатор кодека/Информация          : Advanced Sub Station Alpha
Метод сжатия                             : Без потерь
Заголовок                                : Genuine Male Club & Advantage
Язык                                     : Russian
Default                                  : Нет
Forced                                   : Нет
Текст #3
Идентификатор                            : 7
Формат                                   : ASS
Идентификатор кодека                     : S_TEXT/ASS
Идентификатор кодека/Информация          : Advanced Sub Station Alpha
Метод сжатия                             : Без потерь
Заголовок                                : Someone & powerwar
Язык                                     : Russian
Default                                  : Нет
Forced                                   : Нет
Текст #4
Идентификатор                            : 8
Формат                                   : ASS
Идентификатор кодека                     : S_TEXT/ASS
Идентификатор кодека/Информация          : Advanced Sub Station Alpha
Метод сжатия                             : Без потерь
Заголовок                                : Action Manga Team
Язык                                     : Russian
Default                                  : Нет
Forced                                   : Нет
Текст #5
Идентификатор                            : 9
Формат                                   : ASS
Идентификатор кодека                     : S_TEXT/ASS
Идентификатор кодека/Информация          : Advanced Sub Station Alpha
Метод сжатия                             : Без потерь
Заголовок                                : English
Язык                                     : English
Default                                  : Нет
Forced                                   : Нет
Меню
00:00:00.000                             : en:chapter 01
00:02:17.220                             : en:chapter 02
00:04:06.580                             : en:chapter 03
00:13:19.674                             : en:chapter 04
00:23:48.594                             : en:chapter 05
00:32:42.752                             : en:chapter 06
00:45:39.236                             : en:chapter 07
00:48:33.953                             : en:chapter 08
00:50:29.360                             : en:chapter 09

Описание:
Противостояние двух держав не обошлось без вмешательства и третьей стороны, отсюда и мотивы действий Зесса, но он ещё не ведает условий сдачи короля Кришны, его некогда друга. Зессу предстоит встретить и ещё одного товарища, Райгата, того кому суждено тоже быть вовлеченным в этот конфликт и может быть прекратить ненужные кровопролития.Скриншоты:
       
       
-Gekijouban Break Blade: Dai Roku Shou - Doukoku no Toride
劇場版 ブレイク ブレイド 第三章/凶刃ノ痕
Broken Blade: Third Chapter - Mark of the Assassin's Dagger
Сломанный Клинок: Шрамы от ножа убийцы (фильм третий)
-
Жанр: Приключения, фэнтези, меха
Тип: Короткометражный фильм
Продолжительность: 50 мин.
Дата премьеры / период выхода: 25.09.2010
Режиссер: Амино Тэцуро
Автор оригинала: Ёсинага Юносукэ
Производство/студия:
Ссылки: Ani-DB ::: World Art
Качество видео: BDRip
Видео: AVC, 1280x720, 16:9, 23,976 кадра/сек, ~4576 кбит/с
Аудио #1: DTS, 48 КГц, 6 ch, ~1509 кбит/с Звук: Русский (поверх японского), Профессиональный (двухголосый). Озвучка: BBC Saint-Petersburg
Аудио #2: DTS, 48 КГц, 6 ch, ~1509 кбит/с Звук: Японский.
Тип субтитров #1: Русские в контейнере Перевод: Lyrics OP&ED (GMC)
Тип субтитров #2: Русские в контейнере Перевод: Genuine Male Club & Advantage
Тип субтитров #3: Русские в контейнере Перевод: Someone & powerwar
Тип субтитров #4: Русские в контейнере Перевод: Action Manga Team
Тип субтитров #5: Английские в контейнере

MediaInfo

[code]
Общее
Уникальный идентификатор : 234007225388780072466470095125291641845 (0xB00C26FA600D8291B9944CD256AEABF5)
Полное имя : R:\torrent\Gekijouban Break Blade Dai Roku Shou - Doukoku no Toride\Сломанный Клинок Шрамы от ножа убийцы (фильм третий) BDRip 720р.mkv
Формат : Matroska
Версия формата : Version 2
Размер файла : 2,53 Гбайт
Продолжительность : 47 м.
Общий поток : 7602 Кбит/сек
Название фильма : Broken Blade: Third Chapter - Mark of the Assassin's Dagger (2010) / PlayHD
Дата кодирования : UTC 2011-07-15 15:09:22
Программа кодирования : mkvmerge v4.0.0 ('The Stars were mine') сборка от Jun 6 2010 16:18:42
Библиотека кодирования : libebml v1.0.0 + libmatroska v1.0.0
Attachment : Yes / Yes / Yes / Yes / Yes / Yes / Yes / Yes / Yes / Yes
Видео
Идентификатор : 1
Формат : AVC
Формат/Информация : Advanced Video Codec
Профиль формата : [url=mailto:[email protected]][email protected][/url]
Параметр CABAC формата : Да
Параметр ReFrames формата : 9 кадров
Идентификатор кодека : V_MPEG4/ISO/AVC
Продолжительность : 47 м.
Битрейт : 4576 Кбит/сек
Ширина : 1280 пикселей
Высота : 720 пикселей
Соотношение сторон : 16:9
Режим частоты кадров : Постоянный
Частота кадров : 23,976 кадра/сек
Цветовое пространство : YUV
Субдискретизация насыщенности : 4:2:0
Битовая глубина : 8 бит
Тип развёртки : Прогрессивная
Бит/(Пиксели*Кадры) : 0.207
Размер потока : 1,48 Гбайт (58%)
Заголовок : [Encoded by gg]
Библиотека кодирования : x264 core 113 r1884+392 bb4e43f
Настройки программы : cabac=1 / ref=9 / deblock=1:-1:-1 / analyse=0x3:0x113 / me=umh / subme=10 / psy=1 / fade_compensate=0.60 / psy_rd=1.00:0.00 / mixed_ref=1 / me_range=32 / chroma_me=1 / trellis=2 / 8x8dct=1 / cqm=0 / deadzone=21,11 / fast_pskip=0 / chroma_qp_offset=-2 / threads=12 / sliced_threads=0 / nr=0 / decimate=1 / interlaced=0 / constrained_intra=0 / fgo=0 / bframes=6 / b_pyramid=2 / b_adapt=2 / b_bias=0 / direct=2 / weightb=1 / open_gop=0 / weightp=2 / keyint=250 / keyint_min=23 / scenecut=40 / intra_refresh=0 / rc_lookahead=120 / rc=2pass / mbtree=1 / bitrate=4576 / ratetol=1.0 / qcomp=0.60 / qpmin=0 / qpmax=69 / qpstep=4 / cplxblur=20.0 / qblur=0.5 / ip_ratio=1.40 / aq=1:0.80
Default : Нет
Forced : Нет
Аудио #1
Идентификатор : 2
Формат : DTS
Формат/Информация : Digital Theater Systems
Режим : 16
Параметр Endianness формата : Big
Идентификатор кодека : A_DTS
Продолжительность : 47 м.
Вид битрейта : Постоянный
Битрейт : 1509 Кбит/сек
Каналы : 6 каналов
Расположение каналов : Front: L C R, Side: L R, LFE
Частота : 48,0 КГц
Битовая глубина : 24 бит
Метод сжатия : С потерями
Размер потока : 515 Мбайт (20%)
Заголовок : DTS 5.1 @ 1536 Kbps |DVO, BBC Spb|
Язык : Russian
Default : Нет
Forced : Нет
Аудио #2
Идентификатор : 3
Формат : DTS
Формат/Информация : Digital Theater Systems
Режим : 16
Параметр Endianness формата : Big
Идентификатор кодека : A_DTS
Продолжительность : 47 м.
Вид битрейта : Постоянный
Битрейт : 1509 Кбит/сек
Каналы : 6 каналов
Расположение каналов : Front: L C R, Side: L R, LFE
Частота : 48,0 КГц
Битовая глубина : 24 бит
Метод сжатия : С потерями
Размер потока : 515 Мбайт (20%)
Заголовок : DTS 5.1 @ 1536 Kbps |Original|
Язык : Japanese
Default : Нет
Forced : Нет
Текст #1
Идентификатор : 4
Формат : ASS
Идентификатор кодека : S_TEXT/ASS
Идентификатор кодека/Информация : Advanced Sub Station Alpha
Метод сжатия : Без потерь
Заголовок : Lyrics OP&ED (GMC)
Язык : Russian
Default : Нет
Forced : Нет
Текст #2
Идентификатор : 5
Формат : ASS
Идентификатор кодека : S_TEXT/ASS
Идентификатор кодека/Информация : Advanced Sub Station Alpha
Метод сжатия : Без потерь
Заголовок : Genuine Male Club & Advantage
Язык : Russian
Default : Нет
Forced : Нет
Текст #3
Идентификатор : 6
Формат : ASS
Идентификатор кодека : S_TEXT/ASS
Идентификатор кодека/Информация : Advanced Sub Station Alpha
Метод сжатия : Без потерь
Заголовок : Someone & powerwar
Язык : Russian
Default : Нет
Forced : Нет
Текст #4
Идентификатор : 7
Формат : ASS
Идентификатор кодека : S_TEXT/ASS
Идентификатор кодека/Информация : Advanced Sub Station Alpha
Метод сжатия : Без потерь
Заголовок : Action Manga Team
Язык : Russian
Default : Нет
Forced : Нет
Текст #5
Идентификатор : 8
Формат : ASS
Идентификатор кодека : S_TEXT/ASS
Идентификатор кодека/Информация : Advanced Sub Station Alpha
Метод сжатия : Без потерь
Заголовок : English
Язык : English
Default : Нет
Forced : Нет
Меню
00:00:00.000 : en:00:00:00.000
00:02:42.662 : en:00:02:42.662
00:04:30.437 : en:00:04:30.437
00:10:53.319 : en:00:10:53.319
00:20:03.160 : en:00:20:03.160
00:30:51.892 : en:00:30:51.892
00:42:27.795 : en:00:42:27.795
00:45:21.802 : en:00:45:21.802
00:47:11.037 : en:00:47:11.037

Описание:
Континент Крузон. Мир, в котором правит не электричество, а "магия". Основным ресурсом и двигателем производства здесь стал кварц. Люди очищают совместимый кварц и создают кварцевые двигатели и ускорители, которые двигают механизмы. Всё от движков големов до поршней пневматических винтовок. У всех была эта сила - подчинять кварц. Люди называли её "магией". В этом мире родиться "без магии" равносильно болезни. Ригарт - один из тех неудачников, у кого нет никаких способностей к магии. Но сейчас на маленькое королевство, где он живёт, надвигается война. Теперь на её пути Крисна - родной дом Ригарта. Чтобы спасти своих друзей и родной дом от захватчиков, Ригарту придётся повстречаться со своим школьным другом Зессом, командиром отряда "Валькирьи". Но все-таки сам он ничего бы не смог сделать, если бы не произошло событие, которое изменило все...Скриншоты:
       
       
-Gekijouban Break Blade: Dai Roku Shou - Doukoku no Toride
劇場版 ブレイクブレイド 第四章 惨禍ノ地
Broken Blade: Fourth Chapter - Ground of Calamity
Сломанный Клинок: Земля бедствия (фильм четвертый)
-
Жанр: Приключения, фэнтези, меха
Тип: Короткометражный фильм
Продолжительность: 50 мин.
Дата премьеры / период выхода: 30.10.2010
Режиссер: Амино Тэцуро
Автор оригинала: Ёсинага Юносукэ
Производство/студия:
Ссылки: Ani-DB ::: World Art
Качество видео: BDRip
Видео: AVC, 1280x720, 16:9, 23,976 кадра/сек, ~2688 кбит/с
Аудио #1: DTS, 48 КГц, 6 ch, ~1509 кбит/с Звук: Русский (поверх японского), Профессиональный (двухголосый). Озвучка: BBC Saint-Petersburg
Аудио #2: DTS, 48 КГц, 6 ch, ~1509 кбит/с Звук: Японский.
Аудио #3: AC-3, 48 КГц, 2 ch, ~448 кбит/с Звук: Японский (комментарий)
Тип субтитров #1: Русские в контейнере Перевод: Lyrics OP&ED (GMC)
Тип субтитров #2: Русские в контейнере Перевод: Genuine Male Club & Advantage
Тип субтитров #3: Русские в контейнере Перевод: Someone & powerwar
Тип субтитров #4: Русские в контейнере Перевод: Action Manga Team
Тип субтитров #5: Английские в контейнере

MediaInfo

[code]
Общее
Уникальный идентификатор : 233275498836164848617381216172593028525 (0xAF7F3A12D82FEF16904FC2A5FC0E9DAD)
Полное имя : R:\torrent\Gekijouban Break Blade Dai Roku Shou - Doukoku no Toride\Сломанный Клинок Земля бедствия (фильм четвертый BDRip 720р.mkv
Формат : Matroska
Версия формата : Version 2
Размер файла : 2,16 Гбайт
Продолжительность : 49 м.
Общий поток : 6279 Кбит/сек
Название фильма : Broken Blade: Fourth Chapter - Ground of Calamity (2010) / PlayHD
Дата кодирования : UTC 2011-07-15 17:11:19
Программа кодирования : mkvmerge v4.0.0 ('The Stars were mine') сборка от Jun 6 2010 16:18:42
Библиотека кодирования : libebml v1.0.0 + libmatroska v1.0.0
Attachment : Yes / Yes / Yes / Yes / Yes / Yes / Yes / Yes / Yes / Yes
Видео
Идентификатор : 1
Формат : AVC
Формат/Информация : Advanced Video Codec
Профиль формата : [url=mailto:[email protected]][email protected][/url]
Параметр CABAC формата : Да
Параметр ReFrames формата : 9 кадров
Идентификатор кодека : V_MPEG4/ISO/AVC
Продолжительность : 49 м.
Битрейт : 2688 Кбит/сек
Ширина : 1280 пикселей
Высота : 720 пикселей
Соотношение сторон : 16:9
Режим частоты кадров : Постоянный
Частота кадров : 23,976 кадра/сек
Цветовое пространство : YUV
Субдискретизация насыщенности : 4:2:0
Битовая глубина : 8 бит
Тип развёртки : Прогрессивная
Бит/(Пиксели*Кадры) : 0.122
Размер потока : 949 Мбайт (43%)
Заголовок : [Encoded by gg]
Библиотека кодирования : x264 core 114 r1913+431 3ad9c33
Настройки программы : cabac=1 / ref=9 / deblock=1:0:0 / analyse=0x3:0x133 / me=umh / subme=10 / psy=1 / fade_compensate=0.80 / psy_rd=1.00:0.00 / mixed_ref=1 / me_range=24 / chroma_me=1 / trellis=2 / 8x8dct=1 / cqm=0 / deadzone=21,11 / fast_pskip=0 / chroma_qp_offset=-2 / threads=12 / sliced_threads=0 / nr=0 / decimate=1 / interlaced=0 / constrained_intra=0 / fgo=5 / bframes=8 / b_pyramid=2 / b_adapt=2 / b_bias=0 / direct=3 / weightb=1 / open_gop=0 / weightp=2 / keyint=250 / keyint_min=23 / scenecut=40 / intra_refresh=0 / rc_lookahead=60 / rc=crf / mbtree=1 / crf=17.0 / qcomp=0.60 / qpmin=0 / qpmax=69 / qpstep=4 / ip_ratio=1.40 / aq=1:1.00
Язык : Dutch
Default : Нет
Forced : Нет
Аудио #1
Идентификатор : 2
Формат : DTS
Формат/Информация : Digital Theater Systems
Режим : 16
Параметр Endianness формата : Big
Идентификатор кодека : A_DTS
Продолжительность : 49 м.
Вид битрейта : Постоянный
Битрейт : 1509 Кбит/сек
Каналы : 6 каналов
Расположение каналов : Front: L C R, Side: L R, LFE
Частота : 48,0 КГц
Битовая глубина : 24 бит
Метод сжатия : С потерями
Размер потока : 533 Мбайт (24%)
Заголовок : DTS 5.1 @ 1536 Kbps |DVO, BBC Spb|
Язык : Russian
Default : Нет
Forced : Нет
Аудио #2
Идентификатор : 3
Формат : DTS
Формат/Информация : Digital Theater Systems
Режим : 16
Параметр Endianness формата : Big
Идентификатор кодека : A_DTS
Продолжительность : 49 м.
Вид битрейта : Постоянный
Битрейт : 1509 Кбит/сек
Каналы : 6 каналов
Расположение каналов : Front: L C R, Side: L R, LFE
Частота : 48,0 КГц
Битовая глубина : 24 бит
Метод сжатия : С потерями
Размер потока : 533 Мбайт (24%)
Заголовок : DTS 5.1 @ 1536 Kbps |Original|
Язык : Japanese
Default : Нет
Forced : Нет
Аудио #3
Идентификатор : 4
Формат : AC-3
Формат/Информация : Audio Coding 3
Расширение режима : CM (complete main)
Параметр Endianness формата : Big
Идентификатор кодека : A_AC3
Продолжительность : 49 м.
Вид битрейта : Постоянный
Битрейт : 448 Кбит/сек
Каналы : 2 канала
Расположение каналов : Front: L R
Частота : 48,0 КГц
Битовая глубина : 16 бит
Метод сжатия : С потерями
Размер потока : 158 Мбайт (7%)
Заголовок : AC3 2.0 @ 448 Kbps |Commentary|
Язык : Japanese
Default : Нет
Forced : Нет
Текст #1
Идентификатор : 5
Формат : ASS
Идентификатор кодека : S_TEXT/ASS
Идентификатор кодека/Информация : Advanced Sub Station Alpha
Метод сжатия : Без потерь
Заголовок : Lyrics OP&ED (GMC)
Язык : Russian
Default : Да
Forced : Нет
Текст #2
Идентификатор : 6
Формат : ASS
Идентификатор кодека : S_TEXT/ASS
Идентификатор кодека/Информация : Advanced Sub Station Alpha
Метод сжатия : Без потерь
Заголовок : Genuine Male Club & Advantage
Язык : Russian
Default : Нет
Forced : Нет
Текст #3
Идентификатор : 7
Формат : ASS
Идентификатор кодека : S_TEXT/ASS
Идентификатор кодека/Информация : Advanced Sub Station Alpha
Метод сжатия : Без потерь
Заголовок : Someone & powerwar
Язык : Russian
Default : Нет
Forced : Нет
Текст #4
Идентификатор : 8
Формат : ASS
Идентификатор кодека : S_TEXT/ASS
Идентификатор кодека/Информация : Advanced Sub Station Alpha
Метод сжатия : Без потерь
Заголовок : Action Manga Team
Язык : Russian
Default : Нет
Forced : Нет
Текст #5
Идентификатор : 9
Формат : ASS
Идентификатор кодека : S_TEXT/ASS
Идентификатор кодека/Информация : Advanced Sub Station Alpha
Метод сжатия : Без потерь
Заголовок : English
Язык : Russian
Default : Нет
Forced : Нет
Меню
00:00:00.000 : en:00:00:00.000
00:03:41.388 : en:00:03:41.388
00:05:28.912 : en:00:05:28.912
00:12:11.272 : en:00:12:11.272
00:23:24.737 : en:00:23:24.737
00:35:26.666 : en:00:35:26.666
00:45:42.740 : en:00:45:42.740
00:48:48.926 : en:00:48:48.926

Описание:
Действие фильма переносится от столицы. Начинают задействоваться не маленькие отряды роботов, а целые армии во главе с генералами. Ещё интереснее, трагичней, романтичней. Политические интриги, старые ржавые черепахоподобные роботы, война, красивая графика, немного юморка. Новые персонажами, которые были представлены в конце третьего фильма.Скриншоты:
       
       
-Gekijouban Break Blade: Dai Roku Shou - Doukoku no Toride
劇場版ブレイク ブレイド 第五章 死線ノ涯
Broken Blade: Fifth Chapter - Horizon Between Life and Death
Сломанный Клинок: Горизонт между жизнью и смертью (фильм пятый)
-
Жанр: Приключения, фэнтези, меха
Тип: Короткометражный фильм
Продолжительность: 50 мин.
Дата премьеры / период выхода: 22.01.2011
Режиссер: Амино Тэцуро
Автор оригинала: Ёсинага Юносукэ
Производство/студия:
Ссылки: Ani-DB ::: World Art
Качество видео: BDRip
Видео: AVC, 1280x720, 16:9, 23,976 кадра/сек, ~3078 кбит/с
Аудио #1: AAC, 48 КГц, 2 ch, ~192 кбит/с Звук: Русский (поверх японского), Любительский (одноголосый). Озвучка: JAM
Аудио #2: AC-3, 48 КГц, 6 ch, ~640 кбит/с Звук: Японский.
Тип субтитров: Русские подключаемые Перевод: Action Manga Team

MediaInfo

[code]
Общее
Уникальный идентификатор : 207329415637322184262653178905606066437 (0x9BFA3167FA457067AC1E97CFE0C59105)
Полное имя : R:\torrent\Сломанный Клинок Горизонт между жизнью и смертью BDRip 720р\Break Blade - 05 [BD_1280x720_x264].mkv
Формат : Matroska
Версия формата : Version 2
Размер файла : 1,04 Гбайт
Продолжительность : 48 м.
Общий поток : 3101 Кбит/сек
Название фильма : [gg] Broken Blade - 05
Дата кодирования : UTC 2011-06-05 18:52:13
Программа кодирования : mkvmerge v4.3.0 ('Escape from the Island') сборка от Sep 5 2010 10:30:51
Библиотека кодирования : libebml v1.0.0 + libmatroska v1.0.0
Attachment : Yes / Yes / Yes / Yes / Yes / Yes
Видео
Идентификатор : 1
Формат : AVC
Формат/Информация : Advanced Video Codec
Профиль формата : [url=mailto:[email protected]][email protected][/url]
Параметр CABAC формата : Да
Параметр ReFrames формата : 9 кадров
Режим смешивания : Header stripping
Идентификатор кодека : V_MPEG4/ISO/AVC
Продолжительность : 48 м.
Ширина : 1280 пикселей
Высота : 720 пикселей
Соотношение сторон : 16:9
Режим частоты кадров : Постоянный
Частота кадров : 23,976 кадра/сек
Цветовое пространство : YUV
Субдискретизация насыщенности : 4:2:0
Битовая глубина : 8 бит
Тип развёртки : Прогрессивная
Заголовок : Broken Blade - 05
Библиотека кодирования : x264 core 115 r1995+537 0dc51e3
Настройки программы : cabac=1 / ref=9 / deblock=1:-3:-3 / analyse=0x3:0x133 / me=umh / subme=10 / psy=1 / fade_compensate=0.80 / psy_rd=0.40:0.00 / mixed_ref=1 / me_range=24 / chroma_me=1 / trellis=2 / 8x8dct=1 / cqm=0 / deadzone=21,11 / fast_pskip=0 / chroma_qp_offset=-2 / threads=6 / sliced_threads=0 / nr=0 / decimate=1 / interlaced=0 / bluray_compat=0 / constrained_intra=0 / fgo=5 / bframes=10 / b_pyramid=2 / b_adapt=2 / b_bias=0 / direct=3 / weightb=1 / open_gop=0 / weightp=2 / keyint=250 / keyint_min=23 / scenecut=40 / intra_refresh=0 / rc_lookahead=60 / rc=crf / mbtree=1 / crf=17.0 / qcomp=0.60 / qpmin=0 / qpmax=69 / qpstep=4 / ip_ratio=1.40 / aq=1:0.60
Язык : Japanese
Default : Да
Forced : Нет
Аудио #1
Идентификатор : 2
Формат : AAC
Формат/Информация : Advanced Audio Codec
Профиль формата : LC
Идентификатор кодека : A_AAC
Продолжительность : 48 м.
Каналы : 2 канала
Расположение каналов : Front: L R
Частота : 48,0 КГц
Метод сжатия : С потерями
Заголовок : JAM
Язык : Russian
Default : Да
Forced : Нет
Аудио #2
Идентификатор : 3
Формат : AC-3
Формат/Информация : Audio Coding 3
Расширение режима : CM (complete main)
Параметр Endianness формата : Big
Режим смешивания : Header stripping
Идентификатор кодека : A_AC3
Продолжительность : 48 м.
Вид битрейта : Постоянный
Битрейт : 640 Кбит/сек
Каналы : 6 каналов
Расположение каналов : Front: L C R, Side: L R, LFE
Частота : 48,0 КГц
Битовая глубина : 16 бит
Метод сжатия : С потерями
Размер потока : 220 Мбайт (21%)
Заголовок : AC3 5.1
Язык : Japanese
Default : Нет
Forced : Нет

Описание:
Графика, стори, динамика боев, музыка, дизайн мех (чего только стоит тот факт, что меха получают море царапин и серьезных повреждений и частенько вступают в бой, не проводя "косметический" ремонт) - все это на высоком уровне. Когда слышишь скрип сминаемого железа и как крошится кварц, отсутствие пафосной музыки во время боя и т.п. - все это делает фильм очень захватывающим.Скриншоты:
       
       
-Gekijouban Break Blade: Dai Roku Shou - Doukoku no Toride
劇場版 ブレイク ブレイド 第六章/慟哭ノ砦(どうこくのとりで)
Broken Blade: Sixth Chapter - Enclave of Lamentations
Сломанный Клинок: Цитадель плача (фильм шестой)
-
Жанр: Приключения, фэнтези, меха
Тип: Короткометражный фильм
Продолжительность: 50 мин.
Дата премьеры / период выхода: 26.03.2011
Режиссер: Амино Тэцуро
Автор оригинала: Ёсинага Юносукэ
Производство/студия:
Ссылки: Ani-DB ::: World Art
Качество видео: BDRip
Видео: AVC, 1280x720, 16:9, 23,976 кадра/сек, ~3101 кбит/с
Аудио #1: AAC, 48 КГц, 2 ch, ~192 кбит/с Звук: Русский (поверх японского), Любительский (одноголосый). Озвучка: JAM
Аудио #2: AAC, 48 КГц, 6 ch, ~640 кбит/с Звук: Японский.
Тип субтитров: Русские подключаемые Перевод: Action Manga Team

MediaInfo

[code]
Общее
Уникальный идентификатор : 181565004687256532404240626977715902523 (0x889825DF43C6330F81727FCB8071D83B)
Полное имя : R:\torrent\Сломанный Клинок Цитадель плача BDRip 720р\Break Blade - 06 [BD_1280x720_x264].mkv
Формат : Matroska
Версия формата : Version 2
Размер файла : 1,30 Гбайт
Продолжительность : 52 м.
Общий поток : 3569 Кбит/сек
Дата кодирования : UTC 2011-07-31 15:21:03
Программа кодирования : mkvmerge v4.5.0 ('Speed of Light') сборка от Feb 1 2011 02:10:32
Библиотека кодирования : libebml v1.2.0 + libmatroska v1.1.0
Видео
Идентификатор : 1
Формат : AVC
Формат/Информация : Advanced Video Codec
Профиль формата : [url=mailto:[email protected]][email protected][/url]
Параметр CABAC формата : Да
Параметр ReFrames формата : 8 кадров
Режим смешивания : Header stripping
Идентификатор кодека : V_MPEG4/ISO/AVC
Продолжительность : 52 м.
Ширина : 1280 пикселей
Высота : 720 пикселей
Соотношение сторон : 16:9
Режим частоты кадров : Постоянный
Частота кадров : 23,976 кадра/сек
Цветовое пространство : YUV
Субдискретизация насыщенности : 4:2:0
Битовая глубина : 8 бит
Тип развёртки : Прогрессивная
Библиотека кодирования : x264 core 116 r2037 f8ebd4a
Настройки программы : cabac=1 / ref=8 / deblock=1:0:0 / analyse=0x3:0x133 / me=umh / subme=10 / psy=1 / psy_rd=1.00:0.00 / mixed_ref=1 / me_range=24 / chroma_me=1 / trellis=2 / 8x8dct=1 / cqm=0 / deadzone=21,11 / fast_pskip=0 / chroma_qp_offset=-2 / threads=6 / sliced_threads=0 / nr=0 / decimate=1 / interlaced=0 / bluray_compat=0 / constrained_intra=0 / bframes=8 / b_pyramid=2 / b_adapt=2 / b_bias=0 / direct=3 / weightb=1 / open_gop=0 / weightp=2 / keyint=240 / keyint_min=23 / scenecut=40 / intra_refresh=0 / rc_lookahead=40 / rc=crf / mbtree=1 / crf=16.0 / qcomp=0.60 / qpmin=0 / qpmax=45 / qpstep=4 / ip_ratio=1.40 / aq=1:1.00
Язык : Japanese
Default : Да
Forced : Нет
Аудио #1
Идентификатор : 2
Формат : AAC
Формат/Информация : Advanced Audio Codec
Профиль формата : LC
Идентификатор кодека : A_AAC
Продолжительность : 52 м.
Каналы : 2 канала
Расположение каналов : Front: L R
Частота : 48,0 КГц
Метод сжатия : С потерями
Заголовок : JAM
Язык : Russian
Default : Да
Forced : Нет
Аудио #2
Идентификатор : 3
Формат : AAC
Формат/Информация : Advanced Audio Codec
Профиль формата : LC
Идентификатор кодека : A_AAC
Продолжительность : 52 м.
Каналы : 6 каналов
Расположение каналов : Front: L C R, Side: L R, LFE
Частота : 48,0 КГц
Метод сжатия : С потерями
Язык : Japanese
Default : Нет
Forced : Нет

Описание:
Если брать во внимание состояние манги, то оправдываются ожидания того, что конец будет в некой степени скомкан, но наблюдать за развитием сюжета, в котором имели сочетания переплетений: отношений, чувств — вместе с воплощением вышеперечисленного в виде борьбы между големами доставило удовольствие.Скриншоты:
       
       
Время раздачи: 24/7 до первых 3х скачавших
Other forum [Profile] [PM]
Display posts from previous:    
Reply to topic

The time now is: Today 16:57

All times are GMT + 3 Hours



You cannot post new topics in this forum
You cannot reply to topics in this forum
You cannot edit your posts in this forum
You cannot delete your posts in this forum
You cannot vote in polls in this forum
You cannot attach files in this forum
You cannot download files in this forum