Today is a free download without charge Download

Akira / Акира [1988, MV, 1 из 1] BDRip raw+rus

Reply to topic
 
Author
Message

Omen ®

Longevity: 9 years 2 months

Posts: 181086

Торрент-статистика

Post 09-Jan-2013 23:15

[Quote]

-アキラ / Akira / Акира- Жанр: Приключения, фантастика, киберпанк, мистика
Тип: Полнометражный фильм
Продолжительность: 2 ч. 4 м.
Дата премьеры / период выхода: 16.07.1988
Режиссер: Отомо Кацухиро
Автор оригинала: Отомо Кацухиро
Производство/студия:

Качество видео: BDRip
Видео: MPEG-4 Visual, 720 x 384, 23.976 кадров/сек, 1661 Кбит/сек
Аудио #1: AC-3, 48,0 КГц, 6 ch, 448 Кбит/сек Звук: Русский (поверх японского), Профессиональный (многоголосый). Озвучка: Киномания
Аудио #2: AC-3, 48,0 КГц, 6 ch, 384 Кбит/сек Звук: Японский.
Тип субтитров #1: Русские в подключаемые Перевод: Beez-one
Тип субтитров #2: Русские в подключаемые Перевод: Fiore
Тип субтитров #3: Русские в подключаемые Перевод: Malex

MediaInfo

Код:
Общее
Полное имя                               : R:\torrent\Akira BDRip\Akira.1988.BDRip.XviD.AC3.avi
Формат                                   : AVI
Формат/Информация                        : Audio Video Interleave
Профиль формата                          : OpenDML
Размер файла                             : 2,18 Гбайт
Продолжительность                        : 2 ч. 4 м.
Общий поток                              : 2510 Кбит/сек
Название фильма                          : Акира / Akira (1988) BDRip
Программа кодирования                    : VirtualDubModRus 1.5.10.2 (build 2542/release)
Библиотека кодирования                   : VirtualDubMod build 2542/release
Видео
Идентификатор                            : 0
Формат                                   : MPEG-4 Visual
Профиль формата                          : Advanced [email protected]
Параметр BVOP формата                    : 1
Параметр QPel формата                    : Нет
Параметр GMC формата                     : Без точки перехода
Параметр матрицы формата                 : Default (MPEG)
Идентификатор кодека                     : XVID
Идентификатор кодека/Подсказка           : XviD
Продолжительность                        : 2 ч. 4 м.
Битрейт                                  : 1661 Кбит/сек
Ширина                                   : 720 пикселей
Высота                                   : 384 пикселя
Соотношение сторон                       : 1,85:1
Соотношение сторон в оригинале           : 1,85:1
Частота кадров                           : 23,976 кадра/сек
Цветовое пространство                    : YUV
Субдискретизация насыщенности            : 4:2:0
Битовая глубина                          : 8 бит
Тип развёртки                            : Прогрессивная
Метод сжатия                             : С потерями
Бит/(Пиксели*Кадры)                      : 0.251
Размер потока                            : 1,44 Гбайт (66%)
Библиотека кодирования                   : XviD 1.2.1 (UTC 2008-12-04)
Аудио #1
Идентификатор                            : 1
Формат                                   : AC-3
Формат/Информация                        : Audio Coding 3
Расширение режима                        : CM (complete main)
Параметр Endianness формата              : Big
Идентификатор кодека                     : 2000
Продолжительность                        : 2 ч. 4 м.
Вид битрейта                             : Постоянный
Битрейт                                  : 448 Кбит/сек
Каналы                                   : 6 каналов
Расположение каналов                     : Front: L C R, Side: L R, LFE
Частота                                  : 48,0 КГц
Битовая глубина                          : 16 бит
Метод сжатия                             : С потерями
Задержка видео                           : 2 с. 300 мс.
Размер потока                            : 399 Мбайт (18%)
Выравнивание                             : Разделение по промежуткам
Продолжительность промежутка             : 42  мс. (1,00 видеокадр)
Время предзагрузки промежутка            : 500  мс.
Аудио #2
Идентификатор                            : 2
Формат                                   : AC-3
Формат/Информация                        : Audio Coding 3
Расширение режима                        : CM (complete main)
Параметр Endianness формата              : Big
Идентификатор кодека                     : 2000
Продолжительность                        : 2 ч. 4 м.
Вид битрейта                             : Постоянный
Битрейт                                  : 384 Кбит/сек
Каналы                                   : 6 каналов
Расположение каналов                     : Front: L C R, Side: L R, LFE
Частота                                  : 48,0 КГц
Битовая глубина                          : 16 бит
Метод сжатия                             : С потерями
Размер потока                            : 342 Мбайт (15%)
Выравнивание                             : Разделение по промежуткам
Продолжительность промежутка             : 42  мс. (1,00 видеокадр)
Время предзагрузки промежутка            : 500  мс.

Описание:
Год 1988. Огромный взрыв наподобие тех, что без малого полвека назад сотрясли Хиросиму и Нагасаки, стирает Токио с лица земли. Нью-Токио 2019 года, восставшее из пепла, словно тёмный Феникс. Организация страны теперь напоминает тоталитарное государство, железной рукой подавляющее подпольное Сопротивление. В исследовательских центрах проводятся парапсихологические опыты над людьми для разработки совершенного вида оружия. А в стране возникает религиозный культ сверхчеловека по имени Акира, приход которого, якобы, решит все проблемы Японии. В центре повествования - банда байкеров-подростков во главе с лихачом Канэдой. В очередной разборке с соперниками друг Канэды Тэцуо пытается доказать товарищам свою доблесть, но неожиданно для себя оказывается вовлечённым в правительственный эксперимент по извлечению энергии Акиры. Тэцуо становится обладателем силы, способной полностью разрушить Нью-Токио. Кто сможет его остановить?© Алексей Фадеев, World ArtСсылки:
Ani-DB ::: World Art
Скриншоты:
           
           
Время раздачи: 24/7 до первых 3х скачавших
Other forum [Profile] [PM]
Display posts from previous:    
Reply to topic

The time now is: Today 17:26

All times are GMT + 3 Hours



You cannot post new topics in this forum
You cannot reply to topics in this forum
You cannot edit your posts in this forum
You cannot delete your posts in this forum
You cannot vote in polls in this forum
You cannot attach files in this forum
You cannot download files in this forum