Today is a free download without charge Download

Laputa: The Castle in the Sky / Небесный замок Лапута [1986, MV, 1 из 1] BDRip 1040p raw + rus

Reply to topic
 
Author
Message

Omen ®

Longevity: 9 years 2 months

Posts: 181086

Торрент-статистика

Post 09-Jan-2013 23:15

[Quote]

-天空の城ラピュタ / Laputa: The Castle in the Sky / Небесный замок Лапута-
Жанр: Приключения, сказка, романтика
Тип: Полнометражный фильм
Продолжительность: 2 ч. 4 м.
Дата премьеры / период выхода: 02.08.1986
Режиссер: Миядзаки Хаяо
Автор оригинала: Миядзаки Хаяо
Производство/студия:
Качество видео: BDRip
Видео: AVC, 1920 x 1040, 23.976 кадров/сек, 4571 Кбит/сек
Аудио: AC-3, 48,0 КГц, 2 ch, 192 Кбит/сек Звук: Русский профессиональный (полное дублирование). Озвучка: R•U•S•C•I•C•O
Тип субтитров #1: Русские в контейнере.
Тип субтитров #2: Русские в контейнере.

MediaInfo

Код:
Общее
Уникальный идентификатор                 : 187535054102083890286205338286810959871 (0x8D15F008A25EF011A527EC01991F8FFF)
Полное имя                               : R:\torrent\Laputa BDRip.mkv
Формат                                   : Matroska
Версия формата                           : Version 2
Размер файла                             : 4,23 Гбайт
Продолжительность                        : 2 ч. 4 м.
Общий поток                              : 4859 Кбит/сек
Дата кодирования                         : UTC 2012-03-24 11:31:12
Программа кодирования                    : mkvmerge v5.4.0 ('Piper') built on Mar 10 2012 13:34:39
Библиотека кодирования                   : libebml v1.2.3 + libmatroska v1.3.0
Видео
Идентификатор                            : 1
Формат                                   : AVC
Формат/Информация                        : Advanced Video Codec
Профиль формата                          : [url=mailto:[email protected]][email protected][/url]
Параметр CABAC формата                   : Да
Параметр ReFrames формата                : 15 кадров
Режим смешивания                         : Header stripping
Идентификатор кодека                     : V_MPEG4/ISO/AVC
Продолжительность                        : 2 ч. 4 м.
Битрейт                                  : 4571 Кбит/сек
Ширина                                   : 1920 пикселей
Высота                                   : 1040 пикселей
Соотношение сторон                       : 1,85:1
Режим частоты кадров                     : Постоянный
Частота кадров                           : 23,976 кадра/сек
Цветовое пространство                    : YUV
Субдискретизация насыщенности            : 4:2:0
Битовая глубина                          : 8 бит
Тип развёртки                            : Прогрессивная
Бит/(Пиксели*Кадры)                      : 0.095
Размер потока                            : 3,98 Гбайт (94%)
Библиотека кодирования                   : x264 core 120 r2146M bcd41db
Настройки программы                      : cabac=1 / ref=16 / deblock=1:1:1 / analyse=0x3:0x133 / me=tesa / subme=10 / psy=1 / psy_rd=0.40:0.15 / mixed_ref=1 / me_range=16 / chroma_me=1 / trellis=2 / 8x8dct=1 / cqm=0 / deadzone=6,6 / fast_pskip=1 / chroma_qp_offset=-3 / threads=8 / sliced_threads=0 / nr=0 / decimate=0 / interlaced=0 / bluray_compat=0 / constrained_intra=0 / bframes=6 / b_pyramid=1 / b_adapt=2 / b_bias=0 / direct=3 / weightb=1 / open_gop=0 / weightp=2 / keyint=230 / keyint_min=23 / scenecut=40 / intra_refresh=0 / rc_lookahead=40 / rc=crf / mbtree=1 / crf=23.0 / qcomp=0.80 / qpmin=10 / qpmax=51 / qpstep=4 / ip_ratio=1.10 / aq=1:0.60
Default                                  : Да
Forced                                   : Нет
Аудио
Идентификатор                            : 2
Формат                                   : AC-3
Формат/Информация                        : Audio Coding 3
Расширение режима                        : CM (complete main)
Параметр Endianness формата              : Big
Режим смешивания                         : Header stripping
Идентификатор кодека                     : A_AC3
Продолжительность                        : 2 ч. 4 м.
Вид битрейта                             : Постоянный
Битрейт                                  : 192 Кбит/сек
Каналы                                   : 2 канала
Расположение каналов                     : Front: L R
Частота                                  : 48,0 КГц
Битовая глубина                          : 16 бит
Метод сжатия                             : С потерями
Размер потока                            : 171 Мбайт (4%)
Язык                                     : Русский
Default                                  : Да
Forced                                   : Нет
Текст #1
Идентификатор                            : 3
Формат                                   : PGS
Режим смешивания                         : zlib
Идентификатор кодека                     : S_HDMV/PGS
Идентификатор кодека/Информация          : The same subtitle format used on BDs/HD-DVDs
Язык                                     : Русский
Default                                  : Да
Forced                                   : Нет
Текст #2
Идентификатор                            : 4
Формат                                   : PGS
Режим смешивания                         : zlib
Идентификатор кодека                     : S_HDMV/PGS
Идентификатор кодека/Информация          : The same subtitle format used on BDs/HD-DVDs
Язык                                     : Русский
Default                                  : Нет
Forced                                   : Нет
Описание:
Альтернативная реальность, напоминающая викторианскую Европу начала бурного развития научно-технического прогресса. Юный Падзу, подмастерье инженера, отвечающего за исправную работу подъёмника шахты, случайно знакомится с загадочной девочкой с косичкой, буквально упавшей с неба прямо ему в объятия. Оказывется, за незнакомкой гонятся по пятам воздушные пираты, армия и правительственные агенты, пытаясь заполучить хранящийся у неё Летающий Камень, который является ключом к мифическому летающему острову, некогда принадлежащему давно погибшей древней цивилизации. Так начинаются увлекательные приключения двух детей, в ходе которых они открывают тайну Небесного замка Лапуты...

Справка:

1. Лапута — летающий остров из "Путешествия Гулливера в страну Лилипутов" Джонатана Свифта. Лемюэль Гулливер побывал на нем в ходе своего путешествия 5 августа 1706 года.
2. Слово Лапута Миядзаки без всякой задней мысли позаимствовал у Джонатана Свифта. Свифт же, вероятно, взял его из испанского языка, в котором оно значит "шлюха". Поэтому в испаноязычных странах и в США фильм демонстрируется без "неприличного" слова в заглавии.
3. Имя Сита и ряд легенд, использованных в фильме, позаимствованы из индийского фольклора.
4. Студия Studio Ghibli была основана Миядзаки и Такахатой Исао специально для создания этого фильма.
Ссылки:
Ani-DB ::: World Art
Скриншоты:
           
           
Время раздачи: 24/7 до первых 3х скачавших
Other forum [Profile] [PM]
Display posts from previous:    
Reply to topic

The time now is: Today 03:00

All times are GMT + 3 Hours



You cannot post new topics in this forum
You cannot reply to topics in this forum
You cannot edit your posts in this forum
You cannot delete your posts in this forum
You cannot vote in polls in this forum
You cannot attach files in this forum
You cannot download files in this forum