Today is a free download without charge Download

Vexille - 2077 Japan National Isolation / Агент Вексилл [2007, MV, 1 из 1] BDRip 720p rus

Reply to topic
 
Author
Message

Omen ®

Longevity: 9 years 2 months

Posts: 181086

Торрент-статистика

Post 09-Jan-2013 23:15

[Quote]

-ベクシル 2077日本鎖国 / Vexille - 2077 Japan National Isolation / Агент Вексилл- Жанр: Приключения, фантастика
Тип: Полнометражный фильм
Продолжительность: 1 ч. 49 м.
Дата премьеры / период выхода: 18.08.2007
Режиссер: Сори Фумихико
Автор оригинала: Ханда Харука
Качество видео: BDRip
Видео: AVC, 1280 x 720, 16:9, 23.976 кадров/сек, 4162 Кбит/сек
Аудио: AC-3, 48,0 КГц, 2 ch, 256 Кбит/сек Звук: Русский (поверх японского), Профессиональный (многоголосый). Озвучка: Силена Интернашинал
Тип субтитров: Отсутствуют

MediaInfo

Код:
Общее
Уникальный идентификатор                 : 231511375556842267860557125393931331702 (0xAE2B7814A6D6D35D97779BE2BF706876)
Полное имя                               : R:\torrent\Агент Вексилл.mkv
Формат                                   : Matroska
Версия формата                           : Version 2
Размер файла                             : 3,39 Гбайт
Продолжительность                        : 1 ч. 49 м.
Общий поток                              : 4418 Кбит/сек
Название фильма                          : Vexille - 2077 Nihon Sakoku (2007)
Дата кодирования                         : UTC 2012-10-26 14:03:36
Программа кодирования                    : mkvmerge v5.8.0 ('No Sleep / Pillow') built on Sep  2 2012 15:37:04
Библиотека кодирования                   : libebml v1.2.3 + libmatroska v1.3.0
Attachment                               : Yes / Yes / Yes / Yes / Yes / Yes / Yes
Видео
Идентификатор                            : 1
Формат                                   : AVC
Формат/Информация                        : Advanced Video Codec
Профиль формата                          : [url=mailto:[email protected]][email protected][/url]
Параметр CABAC формата                   : Да
Параметр ReFrames формата                : 10 кадров
Режим смешивания                         : Header stripping
Идентификатор кодека                     : V_MPEG4/ISO/AVC
Продолжительность                        : 1 ч. 49 м.
Битрейт                                  : 4162 Кбит/сек
Ширина                                   : 1280 пикселей
Высота                                   : 720 пикселей
Соотношение сторон                       : 16:9
Режим частоты кадров                     : Постоянный
Частота кадров                           : 23,976 кадра/сек
Цветовое пространство                    : YUV
Субдискретизация насыщенности            : 4:2:0
Битовая глубина                          : 8 бит
Тип развёртки                            : Прогрессивная
Бит/(Пиксели*Кадры)                      : 0.188
Размер потока                            : 3,13 Гбайт (92%)
Заголовок                                : 11qazx
Библиотека кодирования                   : x264 core 58
Настройки программы                      : cabac=1 / ref=10 / deblock=1:-3:-3 / analyse=0x3:0x133 / me=umh / subme=6 / me-prepass=0 / brdo=1 / mixed_ref=1 / me_range=16 / chroma_me=1 / trellis=0 / 8x8dct=1 / cqm=2 / deadzone=8,8 / chroma_qp_offset=0 / threads=4 / nr=0 / decimate=0 / mbaff=0 / bframes=5 / b_pyramid=1 / b_adapt=1 / b_bias=0 / direct=1 / wpredb=1 / bime=1 / keyint=250 / keyint_min=25 / scenecut=40(pre) / rc=2pass / bitrate=4162 / ratetol=1.0 / rceq='blurCplx^(1-qComp)' / qcomp=1.00 / qpmin=10 / qpmax=51 / qpstep=4 / cplxblur=20.0 / qblur=0.5 / ip_ratio=1.40 / pb_ratio=1.30 / aq=1:0.5:15.0
Язык                                     : Русский
Default                                  : Да
Forced                                   : Нет
Аудио
Идентификатор                            : 2
Формат                                   : AC-3
Формат/Информация                        : Audio Coding 3
Расширение режима                        : CM (complete main)
Параметр Endianness формата              : Big
Режим смешивания                         : Header stripping
Идентификатор кодека                     : A_AC3
Продолжительность                        : 1 ч. 49 м.
Вид битрейта                             : Постоянный
Битрейт                                  : 256 Кбит/сек
Каналы                                   : 2 канала
Расположение каналов                     : Front: L R
Частота                                  : 48,0 КГц
Битовая глубина                          : 16 бит
Метод сжатия                             : С потерями
Задержка видео                           : 24 мс.
Размер потока                            : 201 Мбайт (6%)
Язык                                     : Русский
Default                                  : Да
Forced                                   : Нет

Описание:
Действие фильма происходит в 2077 году. За 10 лет до этого Япония вышла из ООН и отгородилась от мира магнитным полем. Поводом для этого послужила резолюция ООН, которая запретила дальнейшее развитие робототехники и биотехнологий, угрожающих существованию человечества.
И вот правительство США посылает в Японию спецподразделение SWORD под командованием женщины по имени Vexille. Задание — узнать, что за эти 10 лет случилось в Стране Восходящего Солнца, где запретные науки развивались абсолютно бесконтрольно. Однако оказывается, что тайны одна за одной скрывают другую и все это ведет к драматическому финалу…
Торрент обновлен. Исправлена аудио дорожка.Ссылки:
Ani-DB ::: World Art
Скриншоты:
       
       
Время раздачи: 24/7 до первых 3х скачавших
Other forum [Profile] [PM]
Display posts from previous:    
Reply to topic

The time now is: Today 07:55

All times are GMT + 3 Hours



You cannot post new topics in this forum
You cannot reply to topics in this forum
You cannot edit your posts in this forum
You cannot delete your posts in this forum
You cannot vote in polls in this forum
You cannot attach files in this forum
You cannot download files in this forum