Today is a free download without charge Download

Colorful / Многоцветье [2010, MV, 1 из 1] BDRip 720p rus

Reply to topic
 
Author
Message

Omen ®

Longevity: 9 years 2 months

Posts: 181086

Торрент-статистика

Post 09-Jan-2013 23:15

[Quote]

-カラフル / Colorful / Многоцветье-
Жанр: Фантастика, триллер
Тип: Полнометражный фильм
Продолжительность: 2 ч. 6 м.
Дата премьеры / период выхода: 21.08.2010
Режиссер: Хара Кэйити
Автор оригинала: Мори Это
Производство/студия:
Качество видео: BDRip
Видео: AVC, 1280 x 720, 16:9, 23.976 кадров/сек, 1204 Кбит/сек
Аудио #1: DTS, 48,0 КГц, 6 ch, 1509 Кбит/сек Звук: Русский, Любительский (двухголосый). Озвучка: Онитян & NikaLenina
Аудио #2: DTS, 48,0 КГц, 6 ch, 1509 Кбит/сек Звук: Японский.
Тип субтитров: Отсутствуют.

MediaInfo

Код:
Общее
Уникальный идентификатор                 : 236462684048228411011672238974651058686 (0xB1E50E6FD4129F75AF2147EBA86BC9FE)
Полное имя                               : R:\torrent\Colorful.mkv
Формат                                   : Matroska
Версия формата                           : Version 2
Размер файла                             : 3,81 Гбайт
Продолжительность                        : 2 ч. 6 м.
Общий поток                              : 4308 Кбит/сек
Дата кодирования                         : UTC 2011-06-06 05:18:54
Программа кодирования                    : mkvmerge v4.6.0 ('Still Crazy After All These Years') сборка от Mar 10 2011 02:50:32
Библиотека кодирования                   : libebml v1.2.0 + libmatroska v1.1.0
Видео
Идентификатор                            : 1
Формат                                   : AVC
Формат/Информация                        : Advanced Video Codec
Профиль формата                          : [url=mailto:[email protected]][email protected][/url]
Параметр CABAC формата                   : Да
Параметр ReFrames формата                : 3 кадра
Режим смешивания                         : Header stripping
Идентификатор кодека                     : V_MPEG4/ISO/AVC
Продолжительность                        : 2 ч. 6 м.
Битрейт                                  : 1204 Кбит/сек
Ширина                                   : 1280 пикселей
Высота                                   : 720 пикселей
Соотношение сторон                       : 16:9
Режим частоты кадров                     : Постоянный
Частота кадров                           : 23,976 кадра/сек
Цветовое пространство                    : YUV
Субдискретизация насыщенности            : 4:2:0
Битовая глубина                          : 8 бит
Тип развёртки                            : Прогрессивная
Бит/(Пиксели*Кадры)                      : 0.055
Размер потока                            : 1,06 Гбайт (28%)
Заголовок                                : Video AVC
Библиотека кодирования                   : x264 core 115 r1936+503 e048045
Настройки программы                      : cabac=1 / ref=3 / deblock=1:-2:-2 / analyse=0x3:0x133 / me=umh / subme=10 / psy=1 / fade_compensate=0.20 / psy_rd=0.20:0.00 / mixed_ref=1 / me_range=24 / chroma_me=1 / trellis=2 / 8x8dct=1 / cqm=0 / deadzone=21,11 / fast_pskip=0 / chroma_qp_offset=-5 / threads=9 / sliced_threads=0 / nr=0 / decimate=1 / interlaced=0 / bluray_compat=0 / constrained_intra=0 / fgo=2 / bframes=3 / b_pyramid=1 / b_adapt=2 / b_bias=2 / direct=3 / weightb=1 / open_gop=0 / weightp=2 / keyint=250 / keyint_min=23 / scenecut=40 / intra_refresh=0 / rc_lookahead=50 / rc=crf / mbtree=1 / crf=18.0 / qcomp=0.60 / qpmin=0 / qpmax=69 / qpstep=4 / ip_ratio=1.40 / aq=1:0.70
Язык                                     : Японский
Default                                  : Да
Forced                                   : Нет
Аудио #1
Идентификатор                            : 2
Формат                                   : DTS
Формат/Информация                        : Digital Theater Systems
Режим                                    : 16
Параметр Endianness формата              : Big
Режим смешивания                         : Header stripping
Идентификатор кодека                     : A_DTS
Продолжительность                        : 2 ч. 6 м.
Вид битрейта                             : Постоянный
Битрейт                                  : 1509 Кбит/сек
Каналы                                   : 6 каналов
Расположение каналов                     : Front: L C R, Side: L R, LFE
Частота                                  : 48,0 КГц
Битовая глубина                          : 16 бит
Метод сжатия                             : С потерями
Размер потока                            : 1,33 Гбайт (35%)
Заголовок                                : onichan&nikaLenina 5.1 dts
Язык                                     : Русский
Default                                  : Да
Forced                                   : Нет
Аудио #2
Идентификатор                            : 3
Формат                                   : DTS
Формат/Информация                        : Digital Theater Systems
Режим                                    : 16
Параметр Endianness формата              : Big
Режим смешивания                         : Header stripping
Идентификатор кодека                     : A_DTS
Продолжительность                        : 2 ч. 6 м.
Вид битрейта                             : Постоянный
Битрейт                                  : 1509 Кбит/сек
Каналы                                   : 6 каналов
Расположение каналов                     : Front: L C R, Side: L R, LFE
Частота                                  : 48,0 КГц
Битовая глубина                          : 24 бит
Метод сжатия                             : С потерями
Размер потока                            : 1,33 Гбайт (35%)
Заголовок                                : Original 5.1 dts
Язык                                     : Японский
Default                                  : Нет
Forced                                   : Нет

Описание:
Он неважно жил и плохо умер, совершив тяжкий грех. Но пути Небес неисповедимы – ему дали шанс временно вселиться в тело мальчика-самоубийцы и сотворить хоть что-то хорошее, частично искупить вину и улучшить карму. Теперь он – 14-летний Макото Кобаяси, живущий с отцом, матерью и старшим братом, типичный подросток в возрасте бунта и непонимания. Небесный куратор по имени Пурапура доходчиво разъяснил, зачем его вернули с порога Небытия – надо раскаяться, вспомнить прошлые ошибки, а по ходу дела вправить мозги Макото, чтобы не думал впредь глотать таблетки. Задачи ясны? А дальше сам!
Почему люди не могут жить в согласии, лгут, озлобляются, творят вещи, немыслимые даже для диких зверей? До пропащей души в теле мальчика постепенно стал доходить ответ – потому что все мы разные, а лень, страх или предрассудки не дают понять друг друга. Многоцветье людей, характеров, мнений – это прекрасно, именно так устроена жизнь. Кто способен принять многоцветье и стать его частью – тот и есть настоящий живой человек. А остальное расскажет сам фильм!© Hollow, World ArtСсылки:
Ani-DB ::: World Art
Скриншоты:
         
         
Время раздачи: 24/7 до первых 3х скачавших
Other forum [Profile] [PM]
Display posts from previous:    
Reply to topic

The time now is: Today 12:24

All times are GMT + 3 Hours



You cannot post new topics in this forum
You cannot reply to topics in this forum
You cannot edit your posts in this forum
You cannot delete your posts in this forum
You cannot vote in polls in this forum
You cannot attach files in this forum
You cannot download files in this forum