Today is a free download without charge Download

Kari-gurashi no Arietti / The Borrower Arrietty / Ариэтти из страны лилипутов [2010, MV] BDRip 1040p rus

Reply to topic
 
Author
Message

Omen ®

Longevity: 9 years 2 months

Posts: 181086

Торрент-статистика

Post 09-Jan-2013 23:15

[Quote]

-Kari-gurashi no Arietti / The Borrower Arrietty / Ариэтти из страны лилипутов- Жанр: аниме, приключения, фэнтези
Продолжительность: 1:34:12
Дата премьеры / период выхода: 17 июля 2010
Производство/студия: Studio Ghibli
Режиссер: Хиромасе Йонебаяши
Битрейт видео: ~6253 Кбит/сек, 23,976 кадр/сек, AVC, x264
Размер кадра: 1920x1040
Качество видео: BDRip
Аудио: AC-3, 384 Кбит/сек, 6 канала(ов), 48,0 КГц
Звук: Русский дублированный
Тип субтитров: Нет
Описание:
История маленьких людей, которые живут рядом с нами, одалживая вещи по чуть-чуть. Их существование хранится в секрете. Но юная Ариэти нарушает запрет. Ее обнаруживает 12 летний Шо, и они становятся лучшими друзьями. Медиа инфо
Общее
Уникальный идентификатор : 238713635765880230179611272962537801449 (0xB39692ECC82D24FBBF9BC78AD789C6E9)
Полное имя : D:\Аниме 5\Ариэтти из страны лилипутов The Borrower Arrietty Kari-gurashi no Arietti (2010) BDRip 1080p\Kari-gurashi.no.Arrietty.2010.x264.BDRip.1080p.DUB.mkv
Формат : Matroska
Версия формата : Version 2
Размер файла : 4,37 Гбайт
Продолжительность : 1 ч. 34 м.
Общий поток : 6639 Кбит/сек
Дата кодирования : UTC 2011-11-08 19:01:58
Программа кодирования : mkvmerge v3.2.0 ('Beginnings') built on Feb 12 2010 16:46:17
Библиотека кодирования : libebml v0.7.9 + libmatroska v0.8.1
Видео
Идентификатор : 1
Формат : AVC
Формат/Информация : Advanced Video Codec
Профиль формата : [url=mailto:[email protected]][email protected][/url]
Параметр CABAC формата : Да
Параметр ReFrames формата : 2 кадра
Идентификатор кодека : V_MPEG4/ISO/AVC
Продолжительность : 1 ч. 34 м.
Битрейт : 6253 Кбит/сек
Ширина : 1920 пикселей
Высота : 1040 пикселей
Соотношение сторон : 1,85:1
Соотношение сторон в оригинале : 1,85:1
Режим частоты кадров : Постоянный
Частота кадров : 23,976 кадра/сек
Цветовое пространство : YUV
Субдискретизация насыщенности : 4:2:0
Битовая глубина : 8 бит
Тип развёртки : Прогрессивная
Бит/(Пиксели*Кадры) : 0.131
Размер потока : 4,03 Гбайт (92%)
Заголовок : Kari-gurashi no Arietti
Библиотека кодирования : x264 core 112 r1834 a51816a
Настройки программы : cabac=1 / ref=2 / deblock=1:0:0 / analyse=0x3:0x113 / me=hex / subme=6 / psy=1 / psy_rd=1.00:0.00 / mixed_ref=0 / me_range=16 / chroma_me=1 / trellis=0 / 8x8dct=1 / cqm=0 / deadzone=21,11 / fast_pskip=1 / chroma_qp_offset=-2 / threads=4 / sliced_threads=0 / nr=0 / decimate=1 / interlaced=0 / constrained_intra=0 / bframes=3 / b_pyramid=0 / b_adapt=1 / b_bias=0 / direct=3 / weightb=1 / open_gop=0 / weightp=2 / keyint=250 / keyint_min=25 / scenecut=40 / intra_refresh=0 / rc_lookahead=40 / rc=2pass / mbtree=1 / bitrate=6253 / ratetol=1.0 / qcomp=0.60 / qpmin=10 / qpmax=51 / qpstep=4 / cplxblur=20.0 / qblur=0.5 / ip_ratio=1.41 / aq=1:1.00
Язык : English
Default : Да
Forced : Нет
Аудио
Идентификатор : 2
Формат : AC-3
Формат/Информация : Audio Coding 3
Расширение режима : CM (complete main)
Параметр Endianness формата : Big
Идентификатор кодека : A_AC3
Продолжительность : 1 ч. 34 м.
Вид битрейта : Постоянный
Битрейт : 384 Кбит/сек
Каналы : 6 каналов
Расположение каналов : Front: L C R, Side: L R, LFE
Частота : 48,0 КГц
Битовая глубина : 16 бит
Метод сжатия : С потерями
Размер потока : 259 Мбайт (6%)
Заголовок : Дублированное [лицензия]
Язык : Russian
Default : Да
Forced : НетСкриншоты:

Время раздачи: С 10:00 до 24:00
Other forum [Profile] [PM]
Display posts from previous:    
Reply to topic

The time now is: Today 01:15

All times are GMT + 3 Hours



You cannot post new topics in this forum
You cannot reply to topics in this forum
You cannot edit your posts in this forum
You cannot delete your posts in this forum
You cannot vote in polls in this forum
You cannot attach files in this forum
You cannot download files in this forum