Today is a free download without charge Download

Whisper of the Heart / Mimi o Sumaseba /Шепот сердца [1995, MV, 1 из 1] BDRip 1040p rus

Reply to topic
 
Author
Message

Omen ®

Longevity: 9 years 2 months

Posts: 181086

Торрент-статистика

Post 09-Jan-2013 23:15

[Quote]

-耳をすませば / Whisper of the Heart / Шепот сердца-
Жанр: Романтика, повседневность
Тип: Полнометражный фильм
Продолжительность: 1 ч. 50 м.
Дата премьеры / период выхода: c 29.05.2008
Режиссер: Кондо Ёсифуми
Автор оригинала: Хиираги Аой
Производство/студия:
Качество видео: BDRip
Видео: AVC, 1920x1040, 16:9, 23,976 кадра/сек, ~5010 кбит/с
Аудио #1: AC-3, 48 КГц, 6 ch, ~448 кбит/с Звук: Русский (поверх японского), Профессиональный (многоголосый) Озвучка: R5
Тип субтитров #1: Русские в контейнере. Перевод: Анна Панина
Тип субтитров #2: Русские в контейнере. Перевод: R5

MediaInfo

Код:
Общее
Уникальный идентификатор                 : 222829019824429196569264511891047686538 (0xA7A34EE49C8217108B9A72DDA587A18A)
Полное имя                               : R:\torrent\Mimi o Sumaseba BDRip.mkv
Формат                                   : Matroska
Версия формата                           : Version 2
Размер файла                             : 4,31 Гбайт
Продолжительность                        : 1 ч. 50 м.
Общий поток                              : 5569 Кбит/сек
Название фильма                          : Whisper of the Heart (1995) / PlayHD
Дата кодирования                         : UTC 2012-02-01 12:36:05
Программа кодирования                    : mkvmerge v5.2.1 ('A Far Off Place') built on Jan  2 2012 23:21:10
Библиотека кодирования                   : libebml v1.2.3 + libmatroska v1.3.0
Видео
Идентификатор                            : 1
Формат                                   : AVC
Формат/Информация                        : Advanced Video Codec
Профиль формата                          : [url=mailto:[email protected]][email protected][/url]
Параметр CABAC формата                   : Да
Параметр ReFrames формата                : 11 кадров
Режим смешивания                         : Header stripping
Идентификатор кодека                     : V_MPEG4/ISO/AVC
Продолжительность                        : 1 ч. 50 м.
Битрейт                                  : 5010 Кбит/сек
Ширина                                   : 1920 пикселей
Высота                                   : 1040 пикселей
Соотношение сторон                       : 1,85:1
Режим частоты кадров                     : Постоянный
Частота кадров                           : 23,976 кадра/сек
Цветовое пространство                    : YUV
Субдискретизация насыщенности            : 4:2:0
Битовая глубина                          : 8 бит
Тип развёртки                            : Прогрессивная
Бит/(Пиксели*Кадры)                      : 0.105
Размер потока                            : 3,88 Гбайт (90%)
Заголовок                                : 1920x1080p (1.85:1), 23.976 fps, AVC MPEG-4, 33.6 Mbps avg [BD-Remux]
Библиотека кодирования                   : x264 core 120 r2145M 748fe16
Настройки программы                      : cabac=1 / ref=12 / deblock=1:1:1 / analyse=0x3:0x133 / me=tesa / subme=10 / psy=1 / psy_rd=0.40:0.20 / mixed_ref=1 / me_range=16 / chroma_me=1 / trellis=2 / 8x8dct=1 / cqm=0 / deadzone=21,11 / fast_pskip=1 / chroma_qp_offset=-3 / threads=8 / sliced_threads=0 / nr=0 / decimate=1 / interlaced=0 / bluray_compat=0 / constrained_intra=0 / bframes=6 / b_pyramid=1 / b_adapt=2 / b_bias=0 / direct=3 / weightb=1 / open_gop=0 / weightp=2 / keyint=230 / keyint_min=23 / scenecut=40 / intra_refresh=0 / rc_lookahead=40 / rc=crf / mbtree=1 / crf=19.0 / qcomp=0.60 / qpmin=10 / qpmax=51 / qpstep=4 / ip_ratio=1.40 / aq=1:0.60
Язык                                     : Японский
Default                                  : Да
Forced                                   : Нет
Аудио
Идентификатор                            : 2
Формат                                   : AC-3
Формат/Информация                        : Audio Coding 3
Расширение режима                        : CM (complete main)
Параметр Endianness формата              : Big
Режим смешивания                         : Header stripping
Идентификатор кодека                     : A_AC3
Продолжительность                        : 1 ч. 50 м.
Вид битрейта                             : Постоянный
Битрейт                                  : 448 Кбит/сек
Каналы                                   : 6 каналов
Расположение каналов                     : Front: L C R, Side: L R, LFE
Частота                                  : 48,0 КГц
Битовая глубина                          : 16 бит
Метод сжатия                             : С потерями
Размер потока                            : 355 Мбайт (8%)
Заголовок                                : AC3 5.1 @ 448 kbps avg |MVO, DVD R5 (RUSCICO)|
Язык                                     : Русский
Default                                  : Да
Forced                                   : Нет
Текст #1
Идентификатор                            : 3
Формат                                   : UTF-8
Идентификатор кодека                     : S_TEXT/UTF8
Идентификатор кодека/Информация          : UTF-8 Plain Text
Заголовок                                : Анна Панина
Язык                                     : Русский
Default                                  : Да
Forced                                   : Нет
Текст #2
Идентификатор                            : 4
Формат                                   : UTF-8
Идентификатор кодека                     : S_TEXT/UTF8
Идентификатор кодека/Информация          : UTF-8 Plain Text
Заголовок                                : DVD R5 (RUSCICO)
Язык                                     : Русский
Default                                  : Нет
Forced                                   : Нет
Описание:
Школьница средних классов Сидзуку Цукисима обожает читать, «глотая» книги одну за другой. Однако какую бы книжку она ни брала из школьной библиотеки, в формуляре прочитавших её прежде значится имя Сэйдзи Амасава. После знакомства с этим необычным пареньком, ставшем её первой любовью, Сидзуку узнаёт много нового и о себе самой, о своих целях в жизни - открытие, которое необратимо изменит её судьбу.

Справка:

1. В прокате фильм "Whisper of the Heart" демонстрировался в паре с музыкальной короткометражкой Миядзаки "On Your Mark".
2. "Whisper of the Heart" - первый фильм студии "Гибли", в котором используется компьютерная графика.
3. К сожалению, Кондо Ёсифуми трагически погиб (в возрасте 47 лет) 21 января 1998 года.
В фильме были использованы картины художника Наохисы Иноэ с изображением придуманного им мира Иблард (Iblard). Хаяо Миядзаки является большим поклонником этого мастера кисти.
Ссылки:
Ani-DB ::: World Art
Скриншоты:
           
           
Время раздачи: 24/7 до первых 3х скачавших
Other forum [Profile] [PM]
Display posts from previous:    
Reply to topic

The time now is: Today 07:59

All times are GMT + 3 Hours



You cannot post new topics in this forum
You cannot reply to topics in this forum
You cannot edit your posts in this forum
You cannot delete your posts in this forum
You cannot vote in polls in this forum
You cannot attach files in this forum
You cannot download files in this forum