Today is a free download without charge Download

Fengyun Jue: Storm Rider - Clash of Evils / Повелители стихий: Столкновение [2008, MV, 1 из 1] BDRip 640p rus

Reply to topic
 
Author
Message

Omen ®

Longevity: 9 years 2 months

Posts: 181086

Торрент-статистика

Post 09-Jan-2013 23:15

[Quote]

-風雲決 STORM RIDER - CLASH OF EVILS / Fengyun Jue: Storm Rider - Clash of Evils / Повелители стихий: Столкновение-
Жанр: Фэнтези, приключения, боевик
Тип: Полнометражный фильм
Продолжительность: 1 ч. 39 м.
Дата премьеры / период выхода: c 19.07.2008
Режиссер: Данте Лам
Производство/студия:
Качество видео: BDRip
Видео: AVC, 1280x640, 23,976 кадра/сек, ~2725 кбит/с
Аудио: AC-3, 48 КГц, 6 ch, ~448 кбит/с Звук: Русский, Профессиональный (полное дублирование).
Тип субтитров: Русские в контейнере. Перевод: Mal

MediaInfo

Код:
Общее
Уникальный идентификатор                 : 205461487383877379643805632784706490364 (0x9A92716ECFABDBC4B4C1268F3BE2CFFC)
Полное имя                               : R:\torrent\Storm Rider - Clash of Evils.mkv
Формат                                   : Matroska
Версия формата                           : Version 2
Размер файла                             : 2,19 Гбайт
Продолжительность                        : 1 ч. 39 м.
Режим общего битрейта                    : Переменный
Общий поток                              : 3163 Кбит/сек
Название фильма                          : BDRip by BuDuLie (FLINTFILMS.RU)
Дата кодирования                         : UTC 2010-06-18 17:48:17
Программа кодирования                    : mkvmerge v3.4.0 ('Rapunzel') сборка от May 15 2010 09:38:20
Библиотека кодирования                   : libebml v0.8.0 + libmatroska v0.9.0
Видео
Идентификатор                            : 2
Формат                                   : AVC
Формат/Информация                        : Advanced Video Codec
Профиль формата                          : [url=mailto:[email protected]][email protected][/url]
Параметр CABAC формата                   : Да
Параметр ReFrames формата                : 3 кадра
Идентификатор кодека                     : V_MPEG4/ISO/AVC
Продолжительность                        : 1 ч. 39 м.
Вид битрейта                             : Переменный
Битрейт                                  : 2725 Кбит/сек
Максимальный битрейт                     : 17,5 Мбит/сек
Ширина                                   : 1280 пикселей
Высота                                   : 640 пикселей
Соотношение сторон                       : 2,000
Режим частоты кадров                     : Постоянный
Частота кадров                           : 23,976 кадра/сек
Цветовое пространство                    : YUV
Субдискретизация насыщенности            : 4:2:0
Битовая глубина                          : 8 бит
Тип развёртки                            : Прогрессивная
Бит/(Пиксели*Кадры)                      : 0.139
Размер потока                            : 1,84 Гбайт (84%)
Заголовок                                : Release for FLINTFILMS
Библиотека кодирования                   : x264 core 96 r1613 81e75e9
Настройки программы                      : cabac=1 / ref=1 / deblock=1:0:0 / analyse=0x3:0x3 / me=dia / subme=1 / psy=1 / psy_rd=0.00:0.00 / mixed_ref=0 / me_range=16 / chroma_me=1 / trellis=0 / 8x8dct=1 / cqm=0 / deadzone=21,11 / fast_pskip=1 / chroma_qp_offset=0 / threads=1 / sliced_threads=0 / slices=4 / nr=0 / decimate=1 / interlaced=0 / constrained_intra=0 / bframes=3 / b_pyramid=1 / b_adapt=1 / b_bias=0 / direct=1 / weightb=1 / weightp=0 / keyint=24 / keyint_min=1 / scenecut=40 / intra_refresh=0 / rc_lookahead=24 / rc=abr / mbtree=0 / bitrate=2725 / ratetol=1.0 / qcomp=0.60 / qpmin=0 / qpmax=51 / qpstep=4 / vbv_maxrate=17500 / vbv_bufsize=14500 / ip_ratio=1.10 / pb_ratio=1.10 / aq=1:1.00 / nal_hrd=vbr
Default                                  : Да
Forced                                   : Нет
Аудио
Идентификатор                            : 1
Формат                                   : AC-3
Формат/Информация                        : Audio Coding 3
Расширение режима                        : CM (complete main)
Параметр Endianness формата              : Big
Идентификатор кодека                     : A_AC3
Продолжительность                        : 1 ч. 39 м.
Вид битрейта                             : Постоянный
Битрейт                                  : 448 Кбит/сек
Каналы                                   : 6 каналов
Расположение каналов                     : Front: L C R, Side: L R, LFE
Частота                                  : 48,0 КГц
Битовая глубина                          : 16 бит
Метод сжатия                             : С потерями
Размер потока                            : 318 Мбайт (14%)
Заголовок                                : Дубляж
Default                                  : Да
Forced                                   : Нет
Текст
Идентификатор                            : 3
Формат                                   : UTF-8
Идентификатор кодека                     : S_TEXT/UTF8
Идентификатор кодека/Информация          : UTF-8 Plain Text
Язык                                     : Русский
Default                                  : Нет
Forced                                   : Нет

Описание:
Золотая чешуя не упокоится в вечном покое, ибо когда Ветер встретится с Oблаком придет дракон. Мировая боевая ассоциация под дланью Завоевателя существует только ради соединения сильнейших в мире боевых искусств в одно целое.
Слова Вонючего Буды гласят: Его желание по объеденению мира боевых искусств свершатся только если он заполучит Ветер и Облако вместе. Для осуществления своей мечты, Он убил всех родных Ветра и Облака. Однако он и понятия не имел об их плане месте. Молодые Ветер и облако стали его учениками и выжидали шанса.Ссылки:
Ani-DB
Скриншоты:
             
             
Время раздачи: 24/7 до первых 3х скачавших
Other forum [Profile] [PM]
Display posts from previous:    
Reply to topic

The time now is: Today 07:15

All times are GMT + 3 Hours



You cannot post new topics in this forum
You cannot reply to topics in this forum
You cannot edit your posts in this forum
You cannot delete your posts in this forum
You cannot vote in polls in this forum
You cannot attach files in this forum
You cannot download files in this forum