Today is a free download without charge Download

Ged\'s War Chronicles / Gedo Senki - Tales from Earthsea / Сказания Земноморья [2006, MV, 1 из 1] BDRip 1040p rus

Reply to topic
 
Author
Message

Omen ®

Longevity: 9 years 2 months

Posts: 181086

Торрент-статистика

Post 09-Jan-2013 23:15

[Quote]

-ゲド戦記 / Ged's War Chronicles / Сказания Земноморья-
Жанр: Приключения, фэнтези, драма, сказка
Тип: Полнометражный фильм
Продолжительность: 1 ч. 55 м.
Дата премьеры / период выхода: c 29.07.2006
Режиссер: Миядзаки Горо
Автор оригинала: Урсула К. Ле Гуин
Производство/студия:
Качество видео: BDRip
Видео: AVC, 1920x1040, 16:9, 23,976 кадра/сек, ~3315 кбит/с
Аудио: AC-3, 48 КГц, 6 ch, ~448 кбит/с Звук: Русский, Профессиональный (полное дублирование). Озвучка: R5
Тип субтитров: Русские в контейнере. Перевод: R5

MediaInfo

Код:
Общее
Уникальный идентификатор                 : 251161412585552177153522473082030044252 (0xBCF3EDB49F08C3A78D4B9038427EB45C)
Полное имя                               : R:\torrent\Tales from Earthsea BDRip.mkv
Формат                                   : Matroska
Версия формата                           : Version 2
Размер файла                             : 3,10 Гбайт
Продолжительность                        : 1 ч. 55 м.
Общий поток                              : 3840 Кбит/сек
Дата кодирования                         : UTC 2012-03-01 16:01:03
Программа кодирования                    : mkvmerge v5.3.0 ('I could have danced') built on Feb  9 2012 10:38:07
Библиотека кодирования                   : libebml v1.2.3 + libmatroska v1.3.0
Видео
Идентификатор                            : 3
Формат                                   : AVC
Формат/Информация                        : Advanced Video Codec
Профиль формата                          : [url=mailto:[email protected]][email protected][/url]
Параметр CABAC формата                   : Да
Параметр ReFrames формата                : 15 кадров
Режим смешивания                         : Header stripping
Идентификатор кодека                     : V_MPEG4/ISO/AVC
Продолжительность                        : 1 ч. 55 м.
Битрейт                                  : 3315 Кбит/сек
Ширина                                   : 1920 пикселей
Высота                                   : 1040 пикселей
Соотношение сторон                       : 1,85:1
Режим частоты кадров                     : Постоянный
Частота кадров                           : 23,976 кадра/сек
Цветовое пространство                    : YUV
Субдискретизация насыщенности            : 4:2:0
Битовая глубина                          : 8 бит
Тип развёртки                            : Прогрессивная
Бит/(Пиксели*Кадры)                      : 0.069
Размер потока                            : 2,68 Гбайт (86%)
Библиотека кодирования                   : x264 core 120 r2146M bcd41db
Настройки программы                      : cabac=1 / ref=16 / deblock=1:1:1 / analyse=0x3:0x133 / me=tesa / subme=10 / psy=1 / psy_rd=0.40:0.25 / mixed_ref=1 / me_range=16 / chroma_me=1 / trellis=2 / 8x8dct=1 / cqm=0 / deadzone=6,6 / fast_pskip=1 / chroma_qp_offset=-4 / threads=8 / sliced_threads=0 / nr=0 / decimate=0 / interlaced=0 / bluray_compat=0 / constrained_intra=0 / bframes=6 / b_pyramid=1 / b_adapt=2 / b_bias=0 / direct=3 / weightb=1 / open_gop=0 / weightp=2 / keyint=230 / keyint_min=23 / scenecut=40 / intra_refresh=0 / rc_lookahead=40 / rc=crf / mbtree=1 / crf=18.0 / qcomp=0.80 / qpmin=10 / qpmax=51 / qpstep=4 / ip_ratio=1.10 / aq=1:0.60
Default                                  : Да
Forced                                   : Нет
Аудио
Идентификатор                            : 1
Формат                                   : AC-3
Формат/Информация                        : Audio Coding 3
Расширение режима                        : CM (complete main)
Параметр Endianness формата              : Big
Режим смешивания                         : Header stripping
Идентификатор кодека                     : A_AC3
Продолжительность                        : 1 ч. 55 м.
Вид битрейта                             : Постоянный
Битрейт                                  : 448 Кбит/сек
Каналы                                   : 6 каналов
Расположение каналов                     : Front: L C R, Side: L R, LFE
Частота                                  : 48,0 КГц
Битовая глубина                          : 16 бит
Метод сжатия                             : С потерями
Размер потока                            : 370 Мбайт (12%)
Заголовок                                : Русский AC3, 6ch 448 kbps (полное дублирование)
Язык                                     : Русский
Default                                  : Да
Forced                                   : Нет
Текст
Идентификатор                            : 2
Формат                                   : ASS
Идентификатор кодека                     : S_TEXT/ASS
Идентификатор кодека/Информация          : Advanced Sub Station Alpha
Метод сжатия                             : Без потерь
Язык                                     : Русский
Default                                  : Нет
Forced                                   : Нет

Описание:
Вселенское равновесие нарушено. Сказочная страна Земноморье в опасности. Мир волшебства на грани исчезновения. Драконы, обитающие в Западном пределе, неожиданно появляются на востоке, во владениях людей. Верховный маг Сокол (истинное имя — Гед) отправляется искать первопричину беды и встречает Аллена, принца Энлада. Аллен совершил тяжелейший грех: убил отца и бежал из родного края, преследуемый тенью. Вдвоем они прибывают в столицу — Норт Таун. Два путешественника находят пристанище в доме Белой Дамы — Тенар, старинной знакомой Геда. Еще будучи девочкой, Тенар была верховной жрицей — хранительницей темных Гробниц Атуана. После того, как Гед восстановил Кольцо Эррет-Акбе из Гробницы, он также освободил Тенар, показав ей неизвестный мир свободы и света...Ссылки:
Ani-DB ::: World Art
Скриншоты:
           
           
Время раздачи: 24/7 до первых 3х скачавших
Other forum [Profile] [PM]
Display posts from previous:    
Reply to topic

The time now is: Today 03:06

All times are GMT + 3 Hours



You cannot post new topics in this forum
You cannot reply to topics in this forum
You cannot edit your posts in this forum
You cannot delete your posts in this forum
You cannot vote in polls in this forum
You cannot attach files in this forum
You cannot download files in this forum