Today is a free download without charge Download

Ghost in the Shell II: Innocence / Призрак в доспехах 2: Невинность [2004, MV, 1 из 1] BDRip 1032p raw + rus

Reply to topic
 
Author
Message

Omen ®

Longevity: 9 years 2 months

Posts: 181086

Торрент-статистика

Post 09-Jan-2013 23:15

[Quote]

-イノセンス / Ghost in the Shell II: Innocence / Призрак в доспехах 2: Невинность-
Жанр: Приключения, фантастика, меха, киберпанк
Тип: Полнометражный фильм
Продолжительность: 1 ч. 39 м.
Дата премьеры / период выхода: 06.03.2004
Режиссер: Осии Мамору
Автор оригинала: Сиро Масамунэ
Производство/студия:
Качество видео: BDRip
Видео: AVC, 1920x1032, 23,976 кадра/сек, ~10332 кбит/с
Аудио #1: DTS, 48 КГц, 6 ch, ~755 кбит/с Звук: Русский (поверх японского), Профессиональный (многоголосый). Озвучка: П.Гланц и И.Королёва
Аудио #2: AC-3, 48 КГц, 6 ch, ~384 кбит/с Звук: Русский (поверх японского), Профессиональный (многоголосый). Озвучка: MC Entertainment
Аудио #3: DTS, 48 КГц, 6 ch, ~1509 кбит/с Звук: Японский.
Аудио #4: AC-3, 48 КГц, 2 ch, ~192 кбит/с Звук: Русский (комментарии)
Тип субтитров: Английские в контейнере.

MediaInfo

Код:
Общее
Уникальный идентификатор                 : 182473573122807926391496438119784533375 (0x894721C1293FF294A39F403F3E344D7F)
Полное имя                               : R:\torrent\Ghost In The Shell 2 Innocence BDRip.mkv
Формат                                   : Matroska
Версия формата                           : Version 1
Размер файла                             : 8,87 Гбайт
Продолжительность                        : 1 ч. 39 м.
Общий поток                              : 12,8 Мбит/сек
Дата кодирования                         : UTC 2007-09-14 15:39:55
Программа кодирования                    : mkvmerge v2.0.2 ('You're My Flame') built on Jun 25 2007 12:41:14
Библиотека кодирования                   : libebml v0.7.7 + libmatroska v0.8.1
Видео
Идентификатор                            : 1
Формат                                   : AVC
Формат/Информация                        : Advanced Video Codec
Профиль формата                          : [url=mailto:[email protected]][email protected][/url]
Параметр CABAC формата                   : Да
Параметр ReFrames формата                : 8 кадров
Идентификатор кодека                     : V_MPEG4/ISO/AVC
Продолжительность                        : 1 ч. 39 м.
Битрейт                                  : 10,1 Мбит/сек
Ширина                                   : 1920 пикселей
Высота                                   : 1032 пикселя
Соотношение сторон                       : 1,85:1
Режим частоты кадров                     : Постоянный
Частота кадров                           : 23,976 кадра/сек
Цветовое пространство                    : YUV
Субдискретизация насыщенности            : 4:2:0
Битовая глубина                          : 8 бит
Тип развёртки                            : Прогрессивная
Бит/(Пиксели*Кадры)                      : 0.213
Размер потока                            : 6,72 Гбайт (76%)
Заголовок                                : 1920x1032, x264  (HDTracker.ru)
Библиотека кодирования                   : x264 core 54 svn-645
Настройки программы                      : cabac=1 / ref=5 / deblock=1:-3:-3 / analyse=0x3:0x113 / me=umh / subme=7 / brdo=1 / mixed_ref=1 / me_range=16 / chroma_me=1 / trellis=1 / 8x8dct=1 / cqm=2 / deadzone=21,11 / chroma_qp_offset=0 / threads=3 / nr=0 / decimate=1 / mbaff=0 / bframes=5 / b_pyramid=1 / b_adapt=1 / b_bias=0 / direct=3 / wpredb=1 / bime=1 / keyint=250 / keyint_min=25 / scenecut=40(pre) / rc=2pass / bitrate=10100 / ratetol=1.0 / rceq='blurCplx^(1-qComp)' / qcomp=0.60 / qpmin=10 / qpmax=51 / qpstep=4 / cplxblur=20.0 / qblur=0.5 / ip_ratio=1.40 / pb_ratio=1.30
Язык                                     : Японский
Default                                  : Да
Forced                                   : Нет
Аудио #1
Идентификатор                            : 2
Формат                                   : DTS
Формат/Информация                        : Digital Theater Systems
Режим                                    : 16
Параметр Endianness формата              : Big
Идентификатор кодека                     : A_DTS
Продолжительность                        : 1 ч. 39 м.
Вид битрейта                             : Постоянный
Битрейт                                  : 755 Кбит/сек
Каналы                                   : 6 каналов
Расположение каналов                     : Front: L C R, Side: L R, LFE
Частота                                  : 48,0 КГц
Битовая глубина                          : 24 бит
Метод сжатия                             : С потерями
Размер потока                            : 535 Мбайт (6%)
Заголовок                                : DTS 5.1, 768kbps
Язык                                     : Русский
Default                                  : Да
Forced                                   : Нет
Аудио #2
Идентификатор                            : 3
Формат                                   : AC-3
Формат/Информация                        : Audio Coding 3
Расширение режима                        : CM (complete main)
Параметр Endianness формата              : Big
Идентификатор кодека                     : A_AC3
Продолжительность                        : 1 ч. 39 м.
Вид битрейта                             : Постоянный
Битрейт                                  : 384 Кбит/сек
Каналы                                   : 6 каналов
Расположение каналов                     : Front: L C R, Side: L R, LFE
Частота                                  : 48,0 КГц
Битовая глубина                          : 16 бит
Метод сжатия                             : С потерями
Размер потока                            : 272 Мбайт (3%)
Заголовок                                : AC3, 6ch 384kbps
Язык                                     : Русский
Default                                  : Нет
Forced                                   : Нет
Аудио #3
Идентификатор                            : 4
Формат                                   : DTS
Формат/Информация                        : Digital Theater Systems
Профиль формата                          : ES
Режим                                    : 16
Параметр Endianness формата              : Big
Идентификатор кодека                     : A_DTS
Продолжительность                        : 1 ч. 39 м.
Вид битрейта                             : Постоянный
Битрейт                                  : 1509 Кбит/сек
Каналы                                   : 7 каналов / 6 каналов
Расположение каналов                     : Front: L C R, Side: L R, Back: C, LFE / Front: L C R, Side: L R, LFE
Частота                                  : 48,0 КГц
Битовая глубина                          : 24 бит
Метод сжатия                             : С потерями
Размер потока                            : 1,04 Гбайт (12%)
Заголовок                                : DTS-ES 6.1, 768kbps
Язык                                     : Японский
Default                                  : Нет
Forced                                   : Нет
Аудио #4
Идентификатор                            : 5
Формат                                   : AC-3
Формат/Информация                        : Audio Coding 3
Расширение режима                        : CM (complete main)
Параметр Endianness формата              : Big
Идентификатор кодека                     : A_AC3
Продолжительность                        : 1 ч. 39 м.
Вид битрейта                             : Постоянный
Битрейт                                  : 192 Кбит/сек
Каналы                                   : 2 канала
Расположение каналов                     : Front: L R
Частота                                  : 48,0 КГц
Битовая глубина                          : 16 бит
Метод сжатия                             : С потерями
Размер потока                            : 136 Мбайт (1%)
Заголовок                                : AC3 2ch, 192kbps
Язык                                     : Русский
Default                                  : Нет
Forced                                   : Нет
Текст
Идентификатор                            : 6
Формат                                   : ASS
Идентификатор кодека                     : S_TEXT/ASS
Идентификатор кодека/Информация          : Advanced Sub Station Alpha
Метод сжатия                             : Без потерь
Заголовок                                : English subtitles
Язык                                     : Английский
Default                                  : Да
Forced                                   : Нет
Описание:
Близкое будущее, 2032 год. Техника достигла невиданного прогресса. Это мир, который люди разделяют с киборгами и роботами. Бато — детектив отдела полиции по борьбе с терроризмом. Он — живой киборг, оснащённый искусственными руками, ногами и прочими частями тела. Остался лишь его прежний мозг да память о ней, о Мотоко Кусанаги. Вместе с напарником Тогусой Бато привлечён к расследованию серии убийств роботами своих владельцев, причём все роботы относятся к эспериментальной модели секс-андроидов фирмы Locus Solus. Компания предпочла бы замять дело, отозвав роботов с рынка и договорившись с родственниками погибших. Но Бато и Тогуса — не из тех, с кем можно заключить полюбовную сделку.

Эта серия состоит из:

#1 Призрак в доспехах - п/ф, адаптация манги, 1995
#2 Призрак в доспехах 2: Невинность - п/ф, продолжение, 2004
#3 Призрак в доспехах: Синдром одиночки [ТВ] - ТВ (52 эп. + 2 спэшла), адаптация манги, 2002
#4 Призрак в доспехах: Синдром одиночки - Дни Татиком - OVA (52 эп.), ответвление ТВ-сериала, 2002
#5 Призрак в доспехах: Синдром одиночки OVA-1 - OVA (1 эп.), компиляция эпизодов 1-ого сезона, 2005
#6 Призрак в доспехах: Синдром одиночки OVA-2 - OVA (1 эп.), компиляция эпизодов 2-ого сезона, 2006
#7 Призрак в доспехах: Синдром одиночки - Фильм - ТВ-спэшл (1 эп.), продолжение ТВ-сериала, 2006
Ссылки:
Ani-DB ::: World Art
Скриншоты:
           
           
           
Время раздачи: 24/7 до первых 3х скачавших
Other forum [Profile] [PM]
Display posts from previous:    
Reply to topic

The time now is: Today 18:04

All times are GMT + 3 Hours



You cannot post new topics in this forum
You cannot reply to topics in this forum
You cannot edit your posts in this forum
You cannot delete your posts in this forum
You cannot vote in polls in this forum
You cannot attach files in this forum
You cannot download files in this forum