Today is a free download without charge Download

Spirited Away / Унесённые призраками [2001, MV, 1 из 1] HDTVRip 1040p raw + rus

Reply to topic
 
Author
Message

Omen ®

Longevity: 9 years 2 months

Posts: 181086

Торрент-статистика

Post 09-Jan-2013 23:15

[Quote]

-千と千尋の神隠し / Spirited Away / Унесённые призраками-
Жанр: Приключения, сказка, драма
Тип: Полнометражный фильм
Продолжительность: 2 ч. 4 м.
Дата премьеры / период выхода: 20.07.2001
Режиссер: Миядзаки Хаяо
Автор оригинала: Миядзаки Хаяо
Производство/студия:
Качество видео: HDTVRip
Видео: AVC, 1920x1040, 23,976 кадра/сек, ~12018 кбит/с
Аудио #1: DTS, 48 КГц, 6 ch, ~755 кбит/с Звук: Русский, Профессиональный (полное дублирование). Озвучка: CP Digital
Аудио #2: AC-3, 48 КГц, 6 ch, ~320 кбит/с Звук: Русский (поверх японского), Любительский (одноголосый). Озвучка: Толстобров
Аудио #3: DTS, 48 КГц, 7/6 ch, ~755 кбит/с Звук: Японский.
Тип субтитров: Русские в контейнере. Перевод: niratat & Rise of Phoenix

MediaInfo

Код:
Общее
Уникальный идентификатор                 : 238614606232009240862782858646396733327 (0xB38380645694E6129AAA3725498A078F)
Полное имя                               : R:\torrent\Spirited Away.mkv
Формат                                   : Matroska
Версия формата                           : Version 2
Размер файла                             : 12,0 Гбайт
Продолжительность                        : 2 ч. 4 м.
Общий поток                              : 13,8 Мбит/сек
Дата кодирования                         : UTC 2011-02-26 05:16:31
Программа кодирования                    : mkvmerge v4.4.0 ('Die Wiederkehr') сборка от Oct 31 2010 21:52:48
Библиотека кодирования                   : libebml v1.0.0 + libmatroska v1.0.0
Видео
Идентификатор                            : 1
Формат                                   : AVC
Формат/Информация                        : Advanced Video Codec
Профиль формата                          : [url=mailto:[email protected]][email protected][/url]
Параметр CABAC формата                   : Да
Параметр ReFrames формата                : 4 кадра
Режим смешивания                         : Header stripping
Идентификатор кодека                     : V_MPEG4/ISO/AVC
Продолжительность                        : 2 ч. 4 м.
Битрейт                                  : 12,0 Мбит/сек
Ширина                                   : 1920 пикселей
Высота                                   : 1040 пикселей
Соотношение сторон                       : 1,85:1
Режим частоты кадров                     : Постоянный
Частота кадров                           : 23,976 кадра/сек
Цветовое пространство                    : YUV
Субдискретизация насыщенности            : 4:2:0
Битовая глубина                          : 8 бит
Тип развёртки                            : Прогрессивная
Бит/(Пиксели*Кадры)                      : 0.251
Размер потока                            : 10,2 Гбайт (85%)
Заголовок                                : x.264 [url=mailto:[email protected]][email protected][/url]; 23.976fps; 12.0 Mbps; Rip by Tamerlan
Библиотека кодирования                   : x264 core 92 r1510 33d382a
Настройки программы                      : cabac=1 / ref=4 / deblock=1:1:1 / analyse=0x3:0x133 / me=umh / subme=9 / psy=1 / psy_rd=1.00:0.00 / mixed_ref=1 / me_range=16 / chroma_me=1 / trellis=2 / 8x8dct=1 / cqm=0 / deadzone=21,11 / fast_pskip=1 / chroma_qp_offset=-2 / threads=6 / sliced_threads=0 / nr=0 / decimate=1 / interlaced=0 / constrained_intra=0 / bframes=3 / b_pyramid=2 / b_adapt=1 / b_bias=0 / direct=1 / wpredb=1 / wpredp=2 / keyint=250 / keyint_min=25 / scenecut=40 / intra_refresh=0 / rc_lookahead=60 / rc=abr / mbtree=1 / bitrate=12000 / ratetol=1.0 / qcomp=0.60 / qpmin=10 / qpmax=51 / qpstep=4 / ip_ratio=1.40 / aq=1:1.00
Язык                                     : Японский
Default                                  : Да
Forced                                   : Нет
Аудио #1
Идентификатор                            : 2
Формат                                   : DTS
Формат/Информация                        : Digital Theater Systems
Режим                                    : 16
Параметр Endianness формата              : Big
Режим смешивания                         : Header stripping
Идентификатор кодека                     : A_DTS
Продолжительность                        : 2 ч. 4 м.
Вид битрейта                             : Постоянный
Битрейт                                  : 755 Кбит/сек
Каналы                                   : 6 каналов
Расположение каналов                     : Front: L C R, Side: L R, LFE
Частота                                  : 48,0 КГц
Битовая глубина                          : 24 бит
Метод сжатия                             : С потерями
Размер потока                            : 672 Мбайт (5%)
Заголовок                                : DTS; 5.1ch; 768kbps [CP Digital]
Язык                                     : Русский
Default                                  : Да
Forced                                   : Нет
Аудио #2
Идентификатор                            : 3
Формат                                   : AC-3
Формат/Информация                        : Audio Coding 3
Расширение режима                        : CM (complete main)
Параметр Endianness формата              : Big
Режим смешивания                         : Header stripping
Идентификатор кодека                     : A_AC3
Продолжительность                        : 2 ч. 4 м.
Вид битрейта                             : Постоянный
Битрейт                                  : 320 Кбит/сек
Каналы                                   : 6 каналов
Расположение каналов                     : Front: L C R, Side: L R, LFE
Частота                                  : 48,0 КГц
Битовая глубина                          : 16 бит
Метод сжатия                             : С потерями
Размер потока                            : 285 Мбайт (2%)
Заголовок                                : AC3; 5.1ch; 320kbps [Tolstobrov]
Язык                                     : Русский
Default                                  : Нет
Forced                                   : Нет
Аудио #3
Идентификатор                            : 4
Формат                                   : DTS
Формат/Информация                        : Digital Theater Systems
Профиль формата                          : ES
Режим                                    : 16
Параметр Endianness формата              : Big
Режим смешивания                         : Header stripping
Идентификатор кодека                     : A_DTS
Продолжительность                        : 2 ч. 4 м.
Вид битрейта                             : Постоянный
Битрейт                                  : 755 Кбит/сек
Каналы                                   : 7 каналов / 6 каналов
Расположение каналов                     : Front: L C R, Side: L R, Back: C, LFE / Front: L C R, Side: L R, LFE
Частота                                  : 48,0 КГц
Битовая глубина                          : 24 бит
Метод сжатия                             : С потерями
Задержка видео                           : 16 мс.
Размер потока                            : 672 Мбайт (5%)
Заголовок                                : DTS; 5.1ch; 768kbps [Jpn]
Язык                                     : Японский
Default                                  : Нет
Forced                                   : Нет
Текст
Идентификатор                            : 5
Формат                                   : ASS
Идентификатор кодека                     : S_TEXT/ASS
Идентификатор кодека/Информация          : Advanced Sub Station Alpha
Метод сжатия                             : Без потерь
Заголовок                                : Russian, ASS
Язык                                     : Русский
Default                                  : Нет
Forced                                   : Нет

Описание:
Маленькая Тихиро вместе с мамой и папой переезжают в новый дом. Заблудившись по дороге, они оказываются в странном пустынном городе, где их ждет великолепный пир. Родители с жадностью набрасываются на еду и к ужасу девочки превращаются в свиней, став пленниками злой колдуньи Юбабы, властительницы таинственного мира древних богов и могущественных духов. Теперь, оказавшись одна среди магических существ и загадочных видений, отважная Тихиро должна придумать, как избавить своих родителей от чар коварной старухи и спастись из пугающего царства призраков...Ссылки:
Ani-DB ::: World Art
Скриншоты:
           
           
           
Время раздачи: 24/7 до первых 3х скачавших
Other forum [Profile] [PM]
Display posts from previous:    
Reply to topic

The time now is: Today 07:22

All times are GMT + 3 Hours



You cannot post new topics in this forum
You cannot reply to topics in this forum
You cannot edit your posts in this forum
You cannot delete your posts in this forum
You cannot vote in polls in this forum
You cannot attach files in this forum
You cannot download files in this forum