Today is a free download without charge Download

Spriggan / Спригган [1998, MV, 1 из 1] BDRip 688p raw + rus

Reply to topic
 
Author
Message

Omen ®

Longevity: 9 years 2 months

Posts: 181086

Торрент-статистика

Post 09-Jan-2013 23:15

[Quote]

-スプリガン / Spriggan / Спригган-
Жанр: Приключения, фантастика
Тип: Полнометражный фильм
Продолжительность: 1 ч. 30 м.
Дата премьеры / период выхода: 05.09.1998
Режиссер: Кавасаки Хироцугу
Автор оригинала: Такасигэ Хироси
Производство/студия:
Качество видео: BDRip
Видео: AVC, 1280x688, 23,976 кадра/сек, ~6250 кбит/с
Аудио #1: AC-3, 48 КГц, 6 ch, ~640 кбит/с Звук: Японский.
Аудио #2: AC-3, 48 КГц, 6 ch, ~384 кбит/с Звук: Русский: Профессиональный многоголосый, закадровый. Озвучка: MC Entertaiment
Тип субтитров: Русские в контейнере.

MediaInfo

Код:
Общее
Уникальный идентификатор                 : 201884830101180476293601072980477665634 (0x97E19A9D2F2262F0B95BF6E9B068E162)
Полное имя                               : R:\torrent\Spriggan.mkv
Формат                                   : Matroska
Версия формата                           : Version 1
Размер файла                             : 4,60 Гбайт
Продолжительность                        : 1 ч. 30 м.
Общий поток                              : 7273 Кбит/сек
Название фильма                          : Spriggan (1998)
Дата кодирования                         : UTC 2010-05-07 18:56:39
Программа кодирования                    : mkvmerge v2.4.0 ('Fumbling Towards Ecstasy') built on Oct 11 2008 20:13:15
Библиотека кодирования                   : libebml v0.7.7 + libmatroska v0.8.1
Attachment                               : Yes / Yes
Видео
Идентификатор                            : 1
Формат                                   : AVC
Формат/Информация                        : Advanced Video Codec
Профиль формата                          : [url=mailto:[email protected]][email protected][/url]
Параметр CABAC формата                   : Да
Параметр ReFrames формата                : 10 кадров
Идентификатор кодека                     : V_MPEG4/ISO/AVC
Продолжительность                        : 1 ч. 30 м.
Битрейт                                  : 6250 Кбит/сек
Ширина                                   : 1280 пикселей
Высота                                   : 688 пикселей
Соотношение сторон                       : 1,85:1
Режим частоты кадров                     : Постоянный
Частота кадров                           : 23,976 кадра/сек
Цветовое пространство                    : YUV
Субдискретизация насыщенности            : 4:2:0
Битовая глубина                          : 8 бит
Тип развёртки                            : Прогрессивная
Бит/(Пиксели*Кадры)                      : 0.296
Размер потока                            : 3,86 Гбайт (84%)
Библиотека кодирования                   : x264 core 58 r798M 17e5dac
Настройки программы                      : cabac=1 / ref=10 / deblock=1:-3:-3 / analyse=0x3:0x133 / me=umh / subme=7 / me-prepass=0 / brdo=1 / mixed_ref=1 / me_range=24 / chroma_me=1 / trellis=0 / 8x8dct=1 / cqm=2 / deadzone=9,9 / chroma_qp_offset=0 / threads=6 / nr=0 / decimate=1 / mbaff=0 / bframes=10 / b_pyramid=1 / b_adapt=1 / b_bias=0 / direct=1 / wpredb=1 / bime=1 / keyint=250 / keyint_min=25 / scenecut=40(pre) / rc=2pass / bitrate=6250 / ratetol=1.0 / rceq='blurCplx^(1-qComp)' / qcomp=1.00 / qpmin=10 / qpmax=51 / qpstep=4 / cplxblur=20.0 / qblur=0.5 / vbv_maxrate=18000 / vbv_bufsize=12000 / ip_ratio=1.40 / pb_ratio=1.30 / aq=1:0.5:15.0
Язык                                     : Японский
Default                                  : Да
Forced                                   : Нет
Аудио #1
Идентификатор                            : 2
Формат                                   : AC-3
Формат/Информация                        : Audio Coding 3
Расширение режима                        : CM (complete main)
Параметр Endianness формата              : Big
Идентификатор кодека                     : A_AC3
Продолжительность                        : 1 ч. 30 м.
Вид битрейта                             : Постоянный
Битрейт                                  : 640 Кбит/сек
Каналы                                   : 6 каналов
Расположение каналов                     : Front: L C R, Side: L R, LFE
Частота                                  : 48,0 КГц
Битовая глубина                          : 16 бит
Метод сжатия                             : С потерями
Размер потока                            : 414 Мбайт (9%)
Заголовок                                : AC3 5.1 640 kbps
Язык                                     : Японский
Default                                  : Нет
Forced                                   : Нет
Аудио #2
Идентификатор                            : 3
Формат                                   : AC-3
Формат/Информация                        : Audio Coding 3
Расширение режима                        : CM (complete main)
Параметр Endianness формата              : Big
Идентификатор кодека                     : A_AC3
Продолжительность                        : 1 ч. 30 м.
Вид битрейта                             : Постоянный
Битрейт                                  : 384 Кбит/сек
Каналы                                   : 6 каналов
Расположение каналов                     : Front: L C R, Side: L R, LFE
Частота                                  : 48,0 КГц
Битовая глубина                          : 16 бит
Метод сжатия                             : С потерями
Задержка видео                           : 10 с.
Размер потока                            : 249 Мбайт (5%)
Заголовок                                : AC3 5.1 384 kbps
Язык                                     : Русский
Default                                  : Да
Forced                                   : Нет
Текст
Идентификатор                            : 4
Формат                                   : UTF-8
Идентификатор кодека                     : S_TEXT/UTF8
Идентификатор кодека/Информация          : UTF-8 Plain Text
Default                                  : Да
Forced                                   : Нет

Описание:
Перед тем как исчезнуть навсегда, древняя цивилизация разбросала по миру наделенные огромной мощью артефакты. Защита этого наследия от посягательств злых сил возложена в наши дни на секретную организацию «Аркам», располагающую отрядом элитных бойцов-Спригганов.
Вмешательство Спригганов требуется после того, как экспедиция ученых случайно обнаружила в недрах горы Арарат Ноев ковчег, вместилище артефактов. Прознавшее о находке американское военное ведомство пытается присвоить сокровище и снять древнюю печать, одновременно начав охоту на известных им оперативников «Аркама».
Молодой Спригган по имени Ю, чудом оставшийся после покушения, отправляется в Турцию с целью положить конец операции Пентагона и обезопасить Ковчег. Сприггану приходиться действовать наперегонки с боевиками американцев — полу-киборгами настоящими сверхлюдьми, которые не остановяться ни перед чем, преследуя свою цель. Именно от Ю теперь зависит судьба всей цивилизации.Внимание! Этот фильм может содержать художественное изображение жестокости и насилия.
Возрастное ограничение 16 лет. В противном случае не скачивайте и не просматривайте данный видеоматериал.
Ссылки:
Ani-DB ::: World Art
Скриншоты:
           
           
Время раздачи: 24/7 до первых 3х скачавших
Other forum [Profile] [PM]
Display posts from previous:    
Reply to topic

The time now is: Today 02:58

All times are GMT + 3 Hours



You cannot post new topics in this forum
You cannot reply to topics in this forum
You cannot edit your posts in this forum
You cannot delete your posts in this forum
You cannot vote in polls in this forum
You cannot attach files in this forum
You cannot download files in this forum