Today is a free download without charge Download

Andersen\'s Children\'s Story: The Mermaid Princess / Принцесса подводного царства [1975, MV, 1 из 1] VHSRip rus

Reply to topic
 
Author
Message

Omen ®

Longevity: 9 years 2 months

Posts: 181086

Торрент-статистика

Post 09-Jan-2013 23:15

[Quote]

-アンデルセン童話 にんぎょ姫 / Andersen's Children's Story: The Mermaid Princess / Принцесса подводного царства-
Жанр: Cказка, фэнтези, драма, романтика
Тип: Полнометражный фильм
Продолжительность: 1 ч. 5 м.
Дата премьеры / период выхода: 21.03.1975
Режиссер: Кацумата Томохару
Автор оригинала: Ганс Христиан Андерсен
Производство/студия:
Качество видео: VHSRip
Видео: MPEG-4 Visual, 688x492, 25,000 кадра/сек, ~1375 кбит/с
Аудио: MPEG Audio, 44,1 КГц, 2 ch, ~104 кбит/с Звук: Русский, профессиональный (полное дублирование). Озвучка: Киностудия СОЮЗМУЛЬТФИЛЬМ

MediaInfo

Код:
Общее
Полное имя                               : R:\torrent\Nigyo Hime.avi
Формат                                   : AVI
Формат/Информация                        : Audio Video Interleave
Размер файла                             : 694 Мбайт
Продолжительность                        : 1 ч. 5 м.
Режим общего битрейта                    : Переменный
Общий поток                              : 1491 Кбит/сек
Программа кодирования                    : VirtualDubMod 1.4.13
Библиотека кодирования                   : VirtualDub build 14328/release
Видео
Идентификатор                            : 0
Формат                                   : MPEG-4 Visual
Профиль формата                          : Advanced [email protected]
Параметр BVOP формата                    : 2
Параметр QPel формата                    : Нет
Параметр GMC формата                     : Без точки перехода
Параметр матрицы формата                 : Default (MPEG)
Режим смешивания                         : Сжатый битовый поток
Идентификатор кодека                     : XVID
Идентификатор кодека/Подсказка           : XviD
Продолжительность                        : 1 ч. 5 м.
Битрейт                                  : 1375 Кбит/сек
Ширина                                   : 688 пикселей
Высота                                   : 492 пикселя
Соотношение сторон                       : 3:2
Частота кадров                           : 25,000 кадров/сек
Цветовое пространство                    : YUV
Субдискретизация насыщенности            : 4:2:0
Битовая глубина                          : 8 бит
Тип развёртки                            : Прогрессивная
Метод сжатия                             : С потерями
Бит/(Пиксели*Кадры)                      : 0.162
Размер потока                            : 640 Мбайт (92%)
Библиотека кодирования                   : XviD 1.0.2 (UTC 2004-08-29)
Аудио
Идентификатор                            : 1
Формат                                   : MPEG Audio
Версия формата                           : Version 1
Профиль формата                          : Layer 3
Идентификатор кодека                     : 55
Идентификатор кодека/Подсказка           : MP3
Продолжительность                        : 1 ч. 5 м.
Вид битрейта                             : Переменный
Битрейт                                  : 104 Кбит/сек
Минимальный битрейт                      : 96,0 Кбит/сек
Каналы                                   : 1 канал
Частота                                  : 44,1 КГц
Метод сжатия                             : С потерями
Размер потока                            : 48,4 Мбайт (7%)
Выравнивание                             : Соединение по промежуткам
Продолжительность промежутка             : 26  мс. (0,65 видеокадр)
Время предзагрузки промежутка            : 517  мс.
Библиотека кодирования                   : LAME3.92
Настройки программы                      : -m m -V 5 -q 0 -lowpass 14.9 --vbr-new -b 96

Описание:
Прекрасная и печальная история, именно такая какой ее написал Андерсен. Фильм, который заставил полюбить аниме множество людей в нашей стране. Памятуя диснеевскую версию, да и вообще склонность анимации к "добрым" концовкам, многие ждут хэппи энда - ан нет, все в полном согласии с оригиналом. Главная драматическая сцена с кинжалом ведьмы - точнейшим образом соответствует тексту автора, Г.Х.Андерсена. Великий сказочник и христианский философ задается вопросом: способна ли русалка - традиционно бездуховное существо, возвыситься до подвига во имя любви? И сам же отвечает - ДА! Его русалочка - пример для восхищения нам, людям! И эту мысль блестяще доносит до зрителя аниме "Принцесса подводного царства"...Ссылки:
Ani-DB ::: World Art
Скриншоты:
       
       
Время раздачи: 24/7 до первых 3х скачавших
Other forum [Profile] [PM]
Display posts from previous:    
Reply to topic

The time now is: Today 17:09

All times are GMT + 3 Hours



You cannot post new topics in this forum
You cannot reply to topics in this forum
You cannot edit your posts in this forum
You cannot delete your posts in this forum
You cannot vote in polls in this forum
You cannot attach files in this forum
You cannot download files in this forum