Today is a free download without charge Download

The Venus Wars / Война на Венере [1989, MV, 1 из 1] DVDRip rus

Reply to topic
 
Author
Message

Omen ®

Longevity: 9 years 2 months

Posts: 181086

Торрент-статистика

Post 09-Jan-2013 23:15

[Quote]

-ヴィーナス戦記 / The Venus Wars / Война на Венере-
Жанр: Приключения, фантастика
Тип: Полнометражный фильм
Продолжительность: 1 ч. 43 м.
Дата премьеры / период выхода: 11.03.1989
Режиссер: Ясухико Ёсикадзу
Автор оригинала: Ясухико Ёсикадзу
Производство/студия:

Качество видео: DVDRip
Видео: AVC, 704x400, 23,976 кадра/сек, ~1507 кбит/с
Аудио: AC-3, 48 КГц, 6 ch, ~384 кбит/с Звук: Русский (профессиональный, многоголосый закадровый). Озвучка: MC Entertaiment
Тип субтитров: Отсутствуют.

MediaInfo

Код:
Общее
Уникальный идентификатор                 : 229673425537760185858297650327700693589 (0xACC97E25FFB4A8FFBF665B3928A8E255)
Полное имя                               : R:\torrent\Venus Senki.mkv
Формат                                   : Matroska
Версия формата                           : Version 1
Размер файла                             : 1,37 Гбайт
Продолжительность                        : 1 ч. 43 м.
Общий поток                              : 1894 Кбит/сек
Дата кодирования                         : UTC 2008-09-09 13:54:12
Программа кодирования                    : mkvmerge v2.1.0 ('Another Place To Fall') built on Aug 19 2007 13:40:07
Библиотека кодирования                   : libebml v0.7.7 + libmatroska v0.8.1
Видео
Идентификатор                            : 1
Формат                                   : AVC
Формат/Информация                        : Advanced Video Codec
Профиль формата                          : [url=mailto:[email protected]][email protected][/url]
Параметр CABAC формата                   : Да
Параметр ReFrames формата                : 16 кадров
Идентификатор кодека                     : V_MPEG4/ISO/AVC
Продолжительность                        : 1 ч. 43 м.
Битрейт                                  : 1507 Кбит/сек
Ширина                                   : 704 пикселя
Высота                                   : 400 пикселей
Соотношение сторон                       : 16:9
Режим частоты кадров                     : Постоянный
Частота кадров                           : 23,976 кадра/сек
Цветовое пространство                    : YUV
Субдискретизация насыщенности            : 4:2:0
Битовая глубина                          : 8 бит
Тип развёртки                            : Прогрессивная
Бит/(Пиксели*Кадры)                      : 0.223
Размер потока                            : 1,06 Гбайт (78%)
Библиотека кодирования                   : x264 core 61 r965M 3d2983d
Настройки программы                      : cabac=1 / ref=16 / deblock=1:3:3 / analyse=0x3:0x133 / me=dia / subme=6 / psy_rd=1.0:0.0 / brdo=0 / mixed_ref=0 / me_range=16 / chroma_me=1 / trellis=0 / 8x8dct=1 / cqm=0 / deadzone=21,11 / chroma_qp_offset=-4 / threads=3 / nr=0 / decimate=1 / mbaff=0 / bframes=1 / b_pyramid=0 / b_adapt=1 / b_bias=0 / direct=2 / wpredb=1 / bime=0 / keyint=250 / keyint_min=25 / scenecut=40(pre) / rc=2pass / bitrate=1507 / ratetol=1.0 / qcomp=1.00 / qpmin=10 / qpmax=51 / qpstep=4 / cplxblur=20.0 / qblur=0.5 / ip_ratio=1.40 / pb_ratio=1.30 / aq=2:1.00 / zones=0,2144,q=22/143653,148584,q=22
Язык                                     : Английский
Default                                  : Да
Forced                                   : Нет
Аудио
Идентификатор                            : 2
Формат                                   : AC-3
Формат/Информация                        : Audio Coding 3
Расширение режима                        : CM (complete main)
Параметр Endianness формата              : Big
Идентификатор кодека                     : A_AC3
Продолжительность                        : 1 ч. 43 м.
Вид битрейта                             : Постоянный
Битрейт                                  : 384 Кбит/сек
Каналы                                   : 6 каналов
Расположение каналов                     : Front: L C R, Side: L R, LFE
Частота                                  : 48,0 КГц
Битовая глубина                          : 16 бит
Метод сжатия                             : С потерями
Размер потока                            : 284 Мбайт (20%)
Default                                  : Да
Forced                                   : Нет

Описание:
В XXI веке человечество развивается в двух мирах. После столкновения ледяного астероида с Венерой, на этой планете стало возможным терраформирование с целью сделать ее пригодной для человека. Земные колонисты укротили враждебный мир, и вот уже четвертое поколение людей живет на Венере. Но человек принес сюда и свою темную сторону... Скоро Венера вновь станет враждебной. История Хиро Сено, безрассудного мотоциклиста, ставшего непосредственным свидетелем первой атаки агрессоров - иштарцев на его родную страну Афродию. Хотя юноша ненавидит междоусобицы, ему тоже приходится сражаться на передовой ради мирного будущего.Ссылки:
Ani-DB ::: World Art
Скриншоты:
             
             
Время раздачи: 24/7 до первых 3х скачавших
Other forum [Profile] [PM]
Display posts from previous:    
Reply to topic

The time now is: Today 02:44

All times are GMT + 3 Hours



You cannot post new topics in this forum
You cannot reply to topics in this forum
You cannot edit your posts in this forum
You cannot delete your posts in this forum
You cannot vote in polls in this forum
You cannot attach files in this forum
You cannot download files in this forum