Today is a free download without charge Download

Summer Wars / Летние войны [2009, MV, 1 из 1] DVDRip raw + rus

Reply to topic
 
Author
Message

Omen ®

Longevity: 9 years 2 months

Posts: 181086

Торрент-статистика

Post 09-Jan-2013 23:15

[Quote]

-サマーウォーズ / Summer Wars / Летние войны-
Жанр: Приключения, комедия, фантастика
Тип: Полнометражный фильм
Продолжительность: 1 ч. 54 м.
Дата премьеры / период выхода: 01.08.2009
Режиссер: Хосода Мамору
Автор оригинала: Окудэра Сатоко
Производство/студия:

Качество видео: BDRip
Видео: MPEG-4 Visual, 720x400, 29,970 кадра/сек, ~1499 кбит/с
Аудио #1: AC-3, 48 КГц, 2 ch, ~448 кбит/с Звук: Русский (дубляж, любительский многолосый). Озвучка: Трина Дубовицкая & Eladiel и другие
Аудио #2: AC-3, 48 КГц, 6 ch, ~448 кбит/с Звук: Японский.
Тип субтитров: Русские подключаемые. Перевод: Witwood
Описание:
В недалёком будущем почти треть планеты переселилась в виртуальную «страну ОЗ», где миллионы аватаров день за днем играют, общаются, торгуют, работают и даже творят высокую политику. Многие чувствуют себя в ОЗ куда увереннее, чем «в реале», и среди них 17-летний Кэндзи Койсо – типичный юный математик и программист. В свои последние летние каникулы Кэндзи привычно терзал очередной код, когда внезапно получил предложение, от которого нельзя отказаться. Еще бы – Нацуки-сэмпай, первая красавица школы, попросила поехать с ней в префектуру Нагано и чем-то помочь в родовом гнезде, поместье Дзинноути, куда на 90-летие матриарха клана уже съезжаются многочисленные родственники.
Знал бы бедный парень, что его ждет – точно не поехал бы. Но он не знал – и испытал самое волнующее приключение своей жизни, в итоге обретя то, о чем давно позабыл. А главное, за приключениями в обоих мирах наш герой понял, что истинный самурай, одолевший свой страх, твердо верящий в себя и близких, почитающий мудрость предков, победит везде, и неважно «какое, милые, у нас тысячелетье на дворе» – информационное ли там общество или Сэнгоку Дзидай!
© Hollow, World Art

MediaInfo

Код:
Общее
Полное имя                               : R:\torrent\Summer Wars HWP\Summer Wars HWP.avi
Формат                                   : AVI
Формат/Информация                        : Audio Video Interleave
Размер файла                             : 1,93 Гбайт
Продолжительность                        : 1 ч. 54 м.
Общий поток                              : 2413 Кбит/сек
Программа кодирования                    : VirtualDubMod 1.5.10.2 (build 2540/release)
Библиотека кодирования                   : VirtualDubMod build 2540/release
Видео
Идентификатор                            : 0
Формат                                   : MPEG-4 Visual
Профиль формата                          : Advanced [email protected]
Параметр BVOP формата                    : 2
Параметр QPel формата                    : Нет
Параметр GMC формата                     : Без точки перехода
Параметр матрицы формата                 : Default (H.263)
Идентификатор кодека                     : XVID
Идентификатор кодека/Подсказка           : XviD
Продолжительность                        : 1 ч. 54 м.
Битрейт                                  : 1499 Кбит/сек
Ширина                                   : 720 пикселей
Высота                                   : 400 пикселей
Соотношение сторон                       : 16:9
Частота кадров                           : 29,970 кадров/сек
Цветовое пространство                    : YUV
Субдискретизация насыщенности            : 4:2:0
Битовая глубина                          : 8 бит
Тип развёртки                            : Прогрессивная
Метод сжатия                             : С потерями
Бит/(Пиксели*Кадры)                      : 0.174
Размер потока                            : 1,20 Гбайт (62%)
Библиотека кодирования                   : XviD 1.2.1 (UTC 2008-12-04)
Аудио #1
Идентификатор                            : 1
Формат                                   : AC-3
Формат/Информация                        : Audio Coding 3
Расширение режима                        : CM (complete main)
Параметр Endianness формата              : Big
Идентификатор кодека                     : 2000
Продолжительность                        : 1 ч. 54 м.
Вид битрейта                             : Постоянный
Битрейт                                  : 448 Кбит/сек
Каналы                                   : 6 каналов
Расположение каналов                     : Front: L C R, Side: L R, LFE
Частота                                  : 48,0 КГц
Битовая глубина                          : 16 бит
Метод сжатия                             : С потерями
Размер потока                            : 367 Мбайт (19%)
Выравнивание                             : Разделение по промежуткам
Продолжительность промежутка             : 33  мс. (1,00 видеокадр)
Время предзагрузки промежутка            : 500  мс.
Аудио #2
Идентификатор                            : 2
Формат                                   : AC-3
Формат/Информация                        : Audio Coding 3
Расширение режима                        : CM (complete main)
Параметр Endianness формата              : Big
Идентификатор кодека                     : 2000
Продолжительность                        : 1 ч. 54 м.
Вид битрейта                             : Постоянный
Битрейт                                  : 448 Кбит/сек
Каналы                                   : 6 каналов
Расположение каналов                     : Front: L C R, Side: L R, LFE
Частота                                  : 48,0 КГц
Битовая глубина                          : 16 бит
Метод сжатия                             : С потерями
Размер потока                            : 367 Мбайт (19%)
Выравнивание                             : Разделение по промежуткам
Продолжительность промежутка             : 33  мс. (1,00 видеокадр)
Время предзагрузки промежутка            : 500  мс.
Ссылки:
Ani-DB ::: World Art
Скриншоты:
         
         
         
Время раздачи: 24/7 до первых 3х скачавших
Other forum [Profile] [PM]
Display posts from previous:    
Reply to topic

The time now is: Today 17:54

All times are GMT + 3 Hours



You cannot post new topics in this forum
You cannot reply to topics in this forum
You cannot edit your posts in this forum
You cannot delete your posts in this forum
You cannot vote in polls in this forum
You cannot attach files in this forum
You cannot download files in this forum