Today is a free download without charge Download

Metropolis / Метрополис [2001, MV, 1 из 1] BDRip 994p raw + rus

Reply to topic
 
Author
Message

Omen ®

Longevity: 9 years 2 months

Posts: 181086

Торрент-статистика

Post 09-Jan-2013 23:15

[Quote]

-メトロポリス / Metropolis / Метрополис-
Жанр: Приключения, фантастика, драма
Тип: Полнометражный фильм
Продолжительность: 1 ч. 47 м.
Дата премьеры / период выхода: 26.05.2001
Режиссер: Ринтаро
Автор оригинала: Тэдзука Осаму
Производство/студия:

Качество видео: BDRip
Видео: AVC, 1920x994, 23,976 кадра/сек, ~19,7 мбит/сек
Аудио #1: AC-3, 48 КГц, 6 ch, ~384 кбит/с Звук: Русский (закадровый, профессиональный многоголосый).
Аудио #2: AC-3, 48 КГц, 2 ch, ~192 кбит/с Звук: Русский (профессиональный, полное дублирование).
Аудио #3: DTS, 48 КГц, 6 ch, ~1509 кбит/с Звук: Японский.
Тип субтитров #1: Русские в контейнере.
Тип субтитров #2: Английские в контейнере.
Тип субтитров #3: Датские в контейнере.

MediaInfo

Код:
Общее
Уникальный идентификатор                 : 254548728796865065336873934720579897617 (0xBF804D49F1E15C2C8CCA33C51BEB8911)
Полное имя                               : R:\torrent\Metropolis BDRip.mkv
Формат                                   : Matroska
Версия формата                           : Version 2
Размер файла                             : 16,4 Гбайт
Продолжительность                        : 1 ч. 47 м.
Общий поток                              : 21,8 Мбит/сек
Дата кодирования                         : UTC 2011-08-02 11:02:50
Программа кодирования                    : mkvmerge v4.8.0 ('I Got The...') сборка от May 24 2011 03:12:58
Библиотека кодирования                   : libebml v1.2.0 + libmatroska v1.1.0
Видео
Идентификатор                            : 1
Формат                                   : AVC
Формат/Информация                        : Advanced Video Codec
Профиль формата                          : [url=mailto:[email protected]][email protected][/url]
Параметр CABAC формата                   : Да
Параметр ReFrames формата                : 4 кадра
Режим смешивания                         : Header stripping
Идентификатор кодека                     : V_MPEG4/ISO/AVC
Продолжительность                        : 1 ч. 47 м.
Битрейт                                  : 19,7 Мбит/сек
Ширина                                   : 1920 пикселей
Высота                                   : 994 пикселя
Соотношение сторон                       : 1,932
Режим частоты кадров                     : Постоянный
Частота кадров                           : 23,976 кадра/сек
Цветовое пространство                    : YUV
Субдискретизация насыщенности            : 4:2:0
Битовая глубина                          : 8 бит
Тип развёртки                            : Прогрессивная
Бит/(Пиксели*Кадры)                      : 0.431
Размер потока                            : 14,5 Гбайт (88%)
Библиотека кодирования                   : x264 core 104 r1677 19df41a
Настройки программы                      : cabac=1 / ref=4 / deblock=1:-1:-1 / analyse=0x3:0x113 / me=umh / subme=9 / psy=1 / psy_rd=1.00:0.00 / mixed_ref=1 / me_range=54 / chroma_me=1 / trellis=2 / 8x8dct=1 / cqm=0 / deadzone=21,11 / fast_pskip=1 / chroma_qp_offset=-2 / threads=12 / sliced_threads=0 / nr=0 / decimate=1 / interlaced=0 / constrained_intra=0 / bframes=5 / b_pyramid=2 / b_adapt=2 / b_bias=0 / direct=1 / weightb=1 / open_gop=1 / weightp=2 / keyint=24 / keyint_min=2 / scenecut=40 / intra_refresh=0 / rc_lookahead=24 / rc=2pass / mbtree=1 / bitrate=19714 / ratetol=1.0 / qcomp=0.70 / qpmin=10 / qpmax=51 / qpstep=4 / cplxblur=20.0 / qblur=0.5 / vbv_maxrate=38000 / vbv_bufsize=30000 / ip_ratio=1.40 / aq=1:1.00 / nal_hrd=none
Язык                                     : Японский
Default                                  : Да
Forced                                   : Нет
Аудио #1
Идентификатор                            : 2
Формат                                   : AC-3
Формат/Информация                        : Audio Coding 3
Расширение режима                        : CM (complete main)
Параметр Endianness формата              : Big
Режим смешивания                         : Header stripping
Идентификатор кодека                     : A_AC3
Продолжительность                        : 1 ч. 47 м.
Вид битрейта                             : Постоянный
Битрейт                                  : 384 Кбит/сек
Каналы                                   : 6 каналов
Расположение каналов                     : Front: L C R, Side: L R, LFE
Частота                                  : 48,0 КГц
Битовая глубина                          : 16 бит
Метод сжатия                             : С потерями
Размер потока                            : 295 Мбайт (2%)
Заголовок                                : AC3 384k
Язык                                     : Русский
Default                                  : Да
Forced                                   : Нет
Аудио #2
Идентификатор                            : 3
Формат                                   : AC-3
Формат/Информация                        : Audio Coding 3
Расширение режима                        : CM (complete main)
Параметр Endianness формата              : Big
Режим смешивания                         : Header stripping
Идентификатор кодека                     : A_AC3
Продолжительность                        : 1 ч. 47 м.
Вид битрейта                             : Постоянный
Битрейт                                  : 192 Кбит/сек
Каналы                                   : 2 канала
Расположение каналов                     : Front: L R
Частота                                  : 48,0 КГц
Битовая глубина                          : 16 бит
Метод сжатия                             : С потерями
Размер потока                            : 148 Мбайт (1%)
Заголовок                                : AC3 192k DUB
Язык                                     : Русский
Default                                  : Нет
Forced                                   : Нет
Аудио #3
Идентификатор                            : 4
Формат                                   : DTS
Формат/Информация                        : Digital Theater Systems
Режим                                    : 16
Параметр Endianness формата              : Big
Режим смешивания                         : Header stripping
Идентификатор кодека                     : A_DTS
Продолжительность                        : 1 ч. 47 м.
Вид битрейта                             : Постоянный
Битрейт                                  : 1509 Кбит/сек
Каналы                                   : 6 каналов
Расположение каналов                     : Front: L C R, Side: L R, LFE
Частота                                  : 48,0 КГц
Битовая глубина                          : 24 бит
Метод сжатия                             : С потерями
Размер потока                            : 1,13 Гбайт (7%)
Заголовок                                : DTS Audio
Язык                                     : Японский
Default                                  : Нет
Forced                                   : Нет
Текст #1
Идентификатор                            : 5
Формат                                   : ASS
Идентификатор кодека                     : S_TEXT/ASS
Идентификатор кодека/Информация          : Advanced Sub Station Alpha
Метод сжатия                             : Без потерь
Язык                                     : Русский
Default                                  : Да
Forced                                   : Нет
Текст #2
Идентификатор                            : 6
Формат                                   : UTF-8
Идентификатор кодека                     : S_TEXT/UTF8
Идентификатор кодека/Информация          : UTF-8 Plain Text
Язык                                     : Английский
Default                                  : Нет
Forced                                   : Нет
Текст #3
Идентификатор                            : 7
Формат                                   : UTF-8
Идентификатор кодека                     : S_TEXT/UTF8
Идентификатор кодека/Информация          : UTF-8 Plain Text
Язык                                     : Dutch
Default                                  : Нет
Forced                                   : Нет
Меню
00:00:00.000                             : en:00:00:00.000
00:03:07.729                             : en:00:03:07.729
00:04:53.250                             : en:00:04:53.250
00:05:58.940                             : en:00:05:58.940
00:06:55.665                             : en:00:06:55.665
00:07:36.706                             : en:00:07:36.706
00:09:34.282                             : en:00:09:34.282
00:10:23.246                             : en:00:10:23.246
00:13:08.162                             : en:00:13:08.162
00:14:13.726                             : en:00:14:13.726
00:16:21.897                             : en:00:16:21.897
00:19:12.276                             : en:00:19:12.276
00:22:28.846                             : en:00:22:28.846
00:23:28.906                             : en:00:23:28.906
00:24:34.471                             : en:00:24:34.471
00:25:33.448                             : en:00:25:33.448
00:27:08.460                             : en:00:27:08.460
00:28:50.561                             : en:00:28:50.561
00:30:38.169                             : en:00:30:38.169
00:33:21.289                             : en:00:33:21.289
00:35:12.443                             : en:00:35:12.443
00:36:26.934                             : en:00:36:26.934
00:38:01.027                             : en:00:38:01.027
00:38:40.067                             : en:00:38:40.067
00:39:22.400                             : en:00:39:22.400
00:41:25.858                             : en:00:41:25.858
00:43:20.722                             : en:00:43:20.722
00:46:06.096                             : en:00:46:06.096
00:47:13.914                             : en:00:47:13.914
00:48:53.554                             : en:00:48:53.554
00:49:45.523                             : en:00:49:45.523
00:50:40.077                             : en:00:50:40.077
00:52:12.295                             : en:00:52:12.295
00:53:14.608                             : en:00:53:14.608
00:54:45.824                             : en:00:54:45.824
00:56:43.148                             : en:00:56:43.148
00:57:58.432                             : en:00:57:58.432
00:59:25.978                             : en:00:59:25.978
01:01:46.244                             : en:01:01:46.244
01:03:30.306                             : en:01:03:30.306
01:06:09.005                             : en:01:06:09.005
01:07:32.088                             : en:01:07:32.088
01:08:39.280                             : en:01:08:39.280
01:09:34.587                             : en:01:09:34.587
01:12:19.710                             : en:01:12:19.710
01:13:54.680                             : en:01:13:54.680
01:16:03.015                             : en:01:16:03.015
01:17:48.412                             : en:01:17:48.412
01:19:24.134                             : en:01:19:24.134
01:20:35.162                             : en:01:20:35.162
01:24:11.421                             : en:01:24:11.421
01:26:15.336                             : en:01:26:15.336
01:27:49.555                             : en:01:27:49.555
01:30:11.905                             : en:01:30:11.905
01:32:01.724                             : en:01:32:01.724
01:34:14.439                             : en:01:34:14.439
01:38:57.347                             : en:01:38:57.347
01:42:45.158                             : en:01:42:45.158

Описание:
Многомиллионная армия роботов заменила людей на заводах и фабриках. Миром правят могущественные главы планетарных суперкорпораций. На этом фоне разворачивается история девочки-киборга, созданной гениальным ученым и обладающей точным сходством с умершей дочерью деспотичного правителя Метрополиса.
Ей было предназначено стать ключом к власти над всем миром. Но в один роковой день она таинственно исчезает… По ее следу пускается опытный детектив и его сын, не подозревая, что тем самым они ввязываются в величайшую битву Добра и Зла, которую только видела Земля.Ссылки:
Ani-DB ::: World Art
Скриншоты:
           
           
           
Время раздачи: 24/7 до первых 3х скачавших
Other forum [Profile] [PM]
Display posts from previous:    
Reply to topic

The time now is: Today 11:13

All times are GMT + 3 Hours



You cannot post new topics in this forum
You cannot reply to topics in this forum
You cannot edit your posts in this forum
You cannot delete your posts in this forum
You cannot vote in polls in this forum
You cannot attach files in this forum
You cannot download files in this forum