Today is a free download without charge Download

Musashi: The Dream of the Last Samurai / Миямото Мусаси: Мечта последнего самурая [2009, MV, 1 из 1] BDRip 640p raw + rus

Reply to topic
 
Author
Message

Omen ®

Longevity: 9 years 2 months

Posts: 181086

Торрент-статистика

Post 09-Jan-2013 23:15

[Quote]

-宮本武蔵-双剣に馳せる夢- / Musashi: The Dream of the Last Samurai / Миямото Мусаси: Мечта последнего самурая-
Жанр: Самурайский боевик
Тип: Полнометражный фильм
Продолжительность: 1 ч. 12 м.
Дата премьеры / период выхода: 13.06.2009
Режиссер: Нисикубо Мидзухо
Автор оригинала: Осии Мамору
Производство/студия:

Качество видео: BDRip
Видео: AVC, 1504x640, 23,976 кадра/сек, ~2732 кбит/с
Аудио #1: AC-3, 48 КГц, 6 ch, ~640 кбит/с Звук: Японский.
Аудио #2: MPEG Audio 44,1 КГц, 2 ch, ~256 кбит/с Звук: Русский (закадровый, любительский одноголосый). Озвучка: Artega
Тип субтитров #1: Английские в контейнере.
Тип субтитров #2: Русские в контейнере. Перевод: Artega
Тип субтитров #3: Русские в контейнере (комментарии).

MediaInfo

Код:
Общее
Уникальный идентификатор                 : 242765245426568939648043690584321198364 (0xB6A2E2B436E76551952743AAB07E891C)
Полное имя                               : R:\torrent\Miyamoto Musashi_Souken ni Haseru Yume.mkv
Формат                                   : Matroska
Версия формата                           : Version 1
Размер файла                             : 1,86 Гбайт
Продолжительность                        : 1 ч. 12 м.
Общий поток                              : 3702 Кбит/сек
Дата кодирования                         : UTC 2010-10-02 12:59:23
Программа кодирования                    : mkvmerge v2.4.2 ('Oh My God') built on Jan 18 2009 17:30:28
Библиотека кодирования                   : libebml v0.7.7 + libmatroska v0.8.1
Видео
Идентификатор                            : 1
Формат                                   : AVC
Формат/Информация                        : Advanced Video Codec
Профиль формата                          : [url=mailto:[email protected]][email protected][/url]
Параметр CABAC формата                   : Да
Параметр ReFrames формата                : 8 кадров
Идентификатор кодека                     : V_MPEG4/ISO/AVC
Продолжительность                        : 1 ч. 12 м.
Битрейт                                  : 2732 Кбит/сек
Ширина                                   : 1504 пикселя
Высота                                   : 640 пикселей
Соотношение сторон                       : 2,35:1
Режим частоты кадров                     : Постоянный
Частота кадров                           : 23,976 кадра/сек
Цветовое пространство                    : YUV
Субдискретизация насыщенности            : 4:2:0
Битовая глубина                          : 8 бит
Тип развёртки                            : Прогрессивная
Бит/(Пиксели*Кадры)                      : 0.118
Размер потока                            : 1,37 Гбайт (74%)
Заголовок                                : H.264
Библиотека кодирования                   : x264 core 88 r1471 1144615
Настройки программы                      : cabac=1 / ref=8 / deblock=1:0:0 / analyse=0x3:0x113 / me=umh / subme=9 / psy=1 / psy_rd=1.00:0.00 / mixed_ref=1 / me_range=24 / chroma_me=1 / trellis=1 / 8x8dct=1 / cqm=0 / deadzone=21,11 / fast_pskip=1 / chroma_qp_offset=-2 / threads=6 / sliced_threads=0 / nr=0 / decimate=1 / mbaff=0 / constrained_intra=0 / bframes=5 / b_pyramid=2 / b_adapt=2 / b_bias=0 / direct=1 / wpredb=1 / wpredp=2 / keyint=300 / keyint_min=5 / scenecut=40 / intra_refresh=0 / rc=crf / mbtree=0 / crf=18.0 / qcomp=0.70 / qpmin=10 / qpmax=51 / qpstep=4 / ip_ratio=1.40 / pb_ratio=1.30 / aq=1:0.40
Default                                  : Да
Forced                                   : Нет
Коэффициенты матрицы                     : BT.709
Аудио #1
Идентификатор                            : 2
Формат                                   : AC-3
Формат/Информация                        : Audio Coding 3
Расширение режима                        : CM (complete main)
Параметр Endianness формата              : Big
Идентификатор кодека                     : A_AC3
Продолжительность                        : 1 ч. 12 м.
Вид битрейта                             : Постоянный
Битрейт                                  : 640 Кбит/сек
Каналы                                   : 6 каналов
Расположение каналов                     : Front: L C R, Side: L R, LFE
Частота                                  : 48,0 КГц
Битовая глубина                          : 16 бит
Метод сжатия                             : С потерями
Размер потока                            : 330 Мбайт (17%)
Заголовок                                : 5.1 AC3
Язык                                     : Японский
Default                                  : Нет
Forced                                   : Нет
Аудио #2
Идентификатор                            : 5
Формат                                   : MPEG Audio
Версия формата                           : Version 1
Профиль формата                          : Layer 3
Идентификатор кодека                     : A_MPEG/L3
Идентификатор кодека/Подсказка           : MP3
Продолжительность                        : 1 ч. 12 м.
Вид битрейта                             : Постоянный
Битрейт                                  : 256 Кбит/сек
Каналы                                   : 2 канала
Частота                                  : 44,1 КГц
Метод сжатия                             : С потерями
Размер потока                            : 132 Мбайт (7%)
Заголовок                                : rus mp3 audio
Язык                                     : Русский
Default                                  : Да
Forced                                   : Нет
Текст #1
Идентификатор                            : 3
Формат                                   : ASS
Идентификатор кодека                     : S_TEXT/ASS
Идентификатор кодека/Информация          : Advanced Sub Station Alpha
Метод сжатия                             : Без потерь
Заголовок                                : ASS subtitles
Язык                                     : Английский
Default                                  : Нет
Forced                                   : Нет
Текст #2
Идентификатор                            : 4
Формат                                   : ASS
Идентификатор кодека                     : S_TEXT/ASS
Идентификатор кодека/Информация          : Advanced Sub Station Alpha
Метод сжатия                             : Без потерь
Заголовок                                : ASS subtitles
Язык                                     : Русский
Default                                  : Нет
Forced                                   : Нет
Текст #3
Идентификатор                            : 6
Формат                                   : ASS
Идентификатор кодека                     : S_TEXT/ASS
Идентификатор кодека/Информация          : Advanced Sub Station Alpha
Метод сжатия                             : Без потерь
Заголовок                                : russian notes
Язык                                     : Русский
Default                                  : Да
Forced                                   : Нет
Описание:
Это документальное аниме о легендарном Миямото Мусаси, великом ронине, признанном одним из самых известных фехтовальщиков в истории Японии. Современники дали ему прозвище «Святой Меч». Мусаси стал знаменит благодаря выдающейся технике владения мечом, которую он с раннего детства оттачивал во множестве поединков, используя деревянный меч. Является основоположником школы «Хёхо Нитэн Ити Рю» или самурайского искусства боя на двух мечах ниторю (яп. 二刀流). Школа «Земли и Неба». Ввёл понятие боккэна как вполне реального боевого оружия, а не тренировочного. Изобрёл, и сам успешно использовал технику боя двумя мечами, из которых один был боккэн, а другой катана. Также он написал «Книгу пяти колец», книгу о тактике, стратегии и философии военного ремесла, которая пользуется определённой популярностью и в настоящее время.

Это интересно:

"Доброжелатель" Миямото — это личное имя, Мусаси — название достаточно большой провинции. Таким образом, воспринимать его стоит аналогично прозвищу. Тот, кто написал «Книгу Пяти Колец» — это Миямото Мусаси Синмэн. А были еще Миямото Мусаси Нагаёси, Миямото Мусаси Масана и т. д. Известный российский японист и историк боевых искусств Японии Алексей Горбылёв насчитал 11 таких Миямото Мусаси, которые примерно в одно и то же время следовали Пути мастера клинка, в той или иной мере прославившись своим искусством. Некоторое время спустя после смерти Миямото Мусаси Синмэна подвиги всех прочих Миямото Мусаси стали приписывать ему.
"Доброжелатель" Вопреки распространённому заблуждению, Мусаси не был изобретателем одновременного использования двух мечей — школа Тэнсин Сёдэн Катори Синто-рю использовала эту технику, начиная с XIV века.
"Доброжелатель" Мусаси не считался самым великим фехтовальщиком (известный американский историк японских боевых искусств Донн Дрэггер пишет, что и до, и после него были имена более известные), сам Мусаси открыто признавал, что считает такого-то и такого-то лучшими бойцами, чем он сам. Однако он действительно принимал участие в сражении при Сэкигахара (кстати, не на стороне победителей), писал картины жанра сумиэ, вырезал статуэтки из дерева, и был не только одиноким воином с эксцентричным поведением, но и неплохим экспертом в дзюдзюцу.
"Доброжелатель" Слава Миямото Мусаси пошла из-за того, что в 1930-х годах Эйдзи Ёсикава написал о нём роман, призванный дать молодёжи образ идеального героя. Большинство ходящих в настоящее время легенд о Миямото Мусаси на самом деле являются просто отрывками из этого романа, и не имеют никакого отношения к его реальной биографии.
"Доброжелатель" Существует множество рассказов о мастерстве Миямото Мусаси. В одном из них говорится, как однажды Мастера вызвал на поединок знаменитый самурай (имя его кануло в Лету), утверждавший, что легко победит и посрамит Мусаси. Мастер отправился к нему, переплывая реку на лодке, он пил сакэ и читал стихи лодочнику. Лодочник обратил внимание на то, что Мастер без оружия и спросил его, чем он будет сражаться. Мусаси сказал, что ему не нужен меч, чтобы успокоить выскочку. Достал танто, взял запасное весло у лодчника, грубо его обтесал, придав некое подобие боккэна и сказал, что этого вполне хватит. Выйдя на берег к поединщику, он нанёс два быстрых удара своей палкой, бросил её на поверженного самурая и вернулся в лодку. Самурай даже не успел достать свой меч.
Ссылки:
Ani-DB ::: World Art
Скриншоты:
             
             
Время раздачи: 24/7 до первых 3х скачавших
Other forum [Profile] [PM]
Display posts from previous:    
Reply to topic

The time now is: Today 12:14

All times are GMT + 3 Hours



You cannot post new topics in this forum
You cannot reply to topics in this forum
You cannot edit your posts in this forum
You cannot delete your posts in this forum
You cannot vote in polls in this forum
You cannot attach files in this forum
You cannot download files in this forum