Today is a free download without charge Download

Meitantei Houmuzu / Великий детектив Холмс [1984] BDRip 720p raw + rus

Reply to topic
 
Author
Message

Omen ®

Longevity: 9 years 2 months

Posts: 181086

Торрент-статистика

Post 09-Jan-2013 23:15

[Quote]

- 名探偵ホームズ / Meitantei Houmuzu / Великий детектив Холмс
- - Название: Великий детектив Холмс
Оригинальное название: Meitantei Houmuzu / 名探偵ホームズ
Страна: Япония
Год выпуска: 1984
Жанр: мультфильм, короткометражка, комедия, семейный
Описание фильма:
Профессор Мориарти, выкравший у ювелира знаменитый драгоценный камень "Голубой карбункул", покидая место преступления, становится жертвой малолетней карманницы, стянувшей у него камень. Шерлоку Холмсу и доктору Ватсону предстоит не только вернуть драгоценный камень хозяину, но и защитить девочку от гнева профессора, а также помочь ей свернуть со скользкой дорожки и вернуться на праведный путь. Вторая история повествует о том, как сыщики противостоят попытке Мориарти украсть найденные на дне моря сокровища Наполеона.
Режиссер: Хаяо Миядзаки
Актеры: Тайтиро Хирокава, Kousei Tomita, Патриция Паррис, Тикао Оцука, Сёдзо Изука, Хироши Масуока, Мицуо Сэнда, Льюис Аркетт, Хэмилтон Кэмп
Продолжительность: 00:45:58
Перевод: Одноголосый закадровый
Субтитры: Русский (TolstiyMob), Английские

Дата мировой премьеры: 26 ноября 1984
Видеокодек: MPEG-4 AVC
Битрейт видео: ~5294 kbps
Размер кадра: 942x720
Качество видео: BDRip
Аудио:
1. DTS Русский 2.0 / 48 kHz / 1510 kbps / 16-bit (Одноголосый закадровый - Mokona)
2. DTS Японский 2.0 / 48 kHz / 1510 kbps / 16-bit

Знаете ли вы, что...

• Короткометражный фильм - это компиляция двух самых удачных эпизодов (#5 The Adventure of the Blue Carbuncle («Приключения голубого карбункула») и #9 Treasure Under the Sea («Сокровища со дна моря»)) сериала Sherlock Hound.
• История сериала Sherlock Hound началась в 1981 году под руководством будущего мэтра японской анимации Хаяо Миядзаки. Это был совместный проект японской киностудии Tokyo Movie Shinsha и итальянской телерадиостанции RAI. Миядзаки успел снять только шесть эпизодов, прежде чем иск правообладателей Конан Дойля застопорил проект, приведя в конце концов к его отмене. Но не смотря на это, в одно время с полнометражным фильмом Nausicaa of the Valley of the Wind, в 1984 году на экраны кинотеатров вышел короткометражный фильм Sherlock Hound. К тому времени спор о копирайте уже уладился, и успех короткометражного фильма побудил студию Tokyo Movie Shinsha вернуться к ТВ-сериалу. Но так как Миядзаки был уже занят в другом проекте, снимать оставшиеся эпизоды Sherlock Hound поручили другим режиссёрам.
• Из 26-ти эпизодов сериала, Миядзаки был режиссёром всего шести эпизодов (##3,4,5,9,10,11). Эти эпизоды легко отличимы, поскольку в них у Смайли (долговязый подручный профессора Мориарти) зелёная шерсть.
• Sherlock Hound стал последним ТВ-сериалом для Миядзаки, до этого он участвовал в создании эпизодов для ТВ-сериалов Lupin III и Future Boy Conan.
• Действие в сериале происходит в викторианской Англии, населённой исключительно собаками, коими и являются Шерлок Холмс, доктор Ватсон и их злейший враг профессор Мориарти. Холмс тут значительно моложе и подвижнее, чем у Конан Дойля, а миссис Хадсон - молоденькая барышня, играющая немаловажную роль в происходящих событиях.

MediaInfo

бщее
Уникальный идентификатор : 235945485750153262740481372197282502677 (0xB18172978BFD703797C922226595D815)
Полное имя : D:\Sherlock.Hound.The.Movie.1984.720р.BluRay.Rus.Jpn.HDCLUB-xmad.mkv
Формат : Matroska
Версия формата : Version 2
Размер файла : 2,72 Гбайт
Продолжительность : 45 м.
Общий поток : 8483 Кбит/сек
Название фильма : Sherlock Hound The Movie (1984)
Дата кодирования : UTC 2012-11-20 16:03:18
Программа кодирования : mkvmerge v5.8.0 ('No Sleep / Pillow') built on Sep 2 2012 15:37:04
Библиотека кодирования : libebml v1.2.3 + libmatroska v1.3.0
Видео
Идентификатор : 1
Формат : AVC
Формат/Информация : Advanced Video Codec
Профиль формата : [url=mailto:[email protected]][email protected][/url]
Параметр CABAC формата : Да
Параметр ReFrames формата : 12 кадров
Идентификатор кодека : V_MPEG4/ISO/AVC
Продолжительность : 45 м.
Битрейт : 5294 Кбит/сек
Ширина : 942 пикселя
Высота : 720 пикселей
Соотношение сторон : 4:3
Частота кадров : 23,976 кадра/сек
Цветовое пространство : YUV
Субдискретизация насыщенности : 4:2:0
Битовая глубина : 8 бит
Тип развёртки : Прогрессивная
Бит/(Пиксели*Кадры) : 0.326
Размер потока : 1,70 Гбайт (62%)
Библиотека кодирования : x264 core 128 r2216 198a7ea
Настройки программы : cabac=1 / ref=12 / deblock=1:-1:-1 / analyse=0x3:0x133 / me=umh / subme=11 / psy=1 / psy_rd=0.90:0.00 / mixed_ref=1 / me_range=48 / chroma_me=1 / trellis=2 / 8x8dct=1 / cqm=0 / deadzone=21,11 / fast_pskip=0 / chroma_qp_offset=-2 / threads=12 / lookahead_threads=2 / sliced_threads=0 / nr=0 / decimate=1 / interlaced=0 / bluray_compat=0 / constrained_intra=0 / bframes=10 / b_pyramid=2 / b_adapt=2 / b_bias=0 / direct=3 / weightb=1 / open_gop=0 / weightp=2 / keyint=240 / keyint_min=24 / scenecut=40 / intra_refresh=0 / rc=crf / mbtree=0 / crf=16.5 / qcomp=0.60 / qpmin=0 / qpmax=69 / qpstep=4 / ip_ratio=1.40 / pb_ratio=1.30 / aq=1:0.80
Язык : Japanese
Default : Да
Forced : Нет
Основные цвета : BT.709-5, BT.1361, IEC 61966-2-4, SMPTE RP177
Характеристики трансфера : BT.709-5, BT.1361
Коэффициенты матрицы : BT.709-5, BT.1361, IEC 61966-2-4 709, SMPTE RP177
Аудио #1
Идентификатор : 2
Формат : DTS
Формат/Информация : Digital Theater Systems
Идентификатор кодека : A_DTS
Продолжительность : 45 м.
Вид битрейта : Постоянный
Битрейт : 1510 Кбит/сек
Каналы : 2 канала
Расположение каналов : Front: L R
Частота : 48,0 КГц
Битовая глубина : 16 бит
Метод сжатия : С потерями
Размер потока : 497 Мбайт (18%)
Заголовок : (DTS 2.0 @ 1510 kbps - Одноголосый закадровый, Mokona)
Язык : Russian
Default : Да
Forced : Нет
Аудио #2
Идентификатор : 3
Формат : DTS
Формат/Информация : Digital Theater Systems
Идентификатор кодека : A_DTS
Продолжительность : 45 м.
Вид битрейта : Постоянный
Битрейт : 1510 Кбит/сек
Каналы : 2 канала
Расположение каналов : Front: L R
Частота : 48,0 КГц
Битовая глубина : 16 бит
Метод сжатия : С потерями
Размер потока : 497 Мбайт (18%)
Заголовок : (DTS 2.0 @ 1510 kbps - Original)
Язык : Japanese
Default : Нет
Forced : Нет
Текст #1
Идентификатор : 4
Формат : UTF-8
Идентификатор кодека : S_TEXT/UTF8
Идентификатор кодека/Информация : UTF-8 Plain Text
Заголовок : TolstiyMob
Язык : Russian
Default : Нет
Forced : Нет
Текст #2
Идентификатор : 5
Формат : UTF-8
Идентификатор кодека : S_TEXT/UTF8
Идентификатор кодека/Информация : UTF-8 Plain Text
Заголовок : neo1024
Язык : English
Default : Нет
Forced : Нет
Меню
00:00:00.000 : :Chapter 01
00:00:15.557 : :Chapter 02
00:11:11.337 : :Chapter 03
00:21:59.984 : :Chapter 04
00:22:13.832 : :Chapter 05
00:33:09.487 : :Chapter 06
00:43:54.965 : :Chapter 07
00:45:43.239 : :Chapter 08
Скриншоты:
-Раздача: 24/7-Не забываем говорить спасибо, Вам не сложно, а мне приятно)))
Прошу с раздачи не уходить! Скачал сам, дай и другим скачать!!!
Приятного просмотра)))
Other forum [Profile] [PM]
Display posts from previous:    
Reply to topic

The time now is: Today 17:51

All times are GMT + 3 Hours



You cannot post new topics in this forum
You cannot reply to topics in this forum
You cannot edit your posts in this forum
You cannot delete your posts in this forum
You cannot vote in polls in this forum
You cannot attach files in this forum
You cannot download files in this forum