Today is a free download without charge Download

Gedo Senki / Tales from Earthsea / Сказания Земноморья [2006] BDRip 720p raw + rus

Reply to topic
 
Author
Message

Omen ®

Longevity: 9 years 2 months

Posts: 181086

Торрент-статистика

Post 09-Jan-2013 23:15

[Quote]

- Gedo Senki / Tales from Earthsea / Сказания Земноморья - «Грядет время, когда драконы и люди станут едины» - Русское название: Сказания Земноморья
Оригинальное название: Gedo Senki (Tales from Earthsea)
Выпущено: Studio Ghibli
Страна: Япония
Год выпуска: 2006
Жанр: Приключения, фэнтези, драма
Описание фильма:
Вселенское равновесие нарушено. Сказочная страна Земноморье в опасности. Мир волшебства на грани исчезновения. Драконы, обитающие в Западном пределе, неожиданно появляются на востоке, во владениях людей. Верховный маг Сокол (истинное имя — Гед) отправляется искать первопричину беды и встречает Аллена, принца Энлада. Аллен совершил тяжелейший грех: убил отца и бежал из родного края, преследуемый тенью. Вдвоем они прибывают в столицу — Норт Таун. Два путешественника находят пристанище в доме Белой Дамы — Тенар, старинной знакомой Геда. Еще будучи девочкой, Тенар была верховной жрицей — хранительницей темных Гробниц Атуана. После того, как Гед восстановил Кольцо Эррет-Акбе из Гробницы, он также освободил Тенар, показав ей неизвестный мир свободы и света...
Режиссер: Миядзаки Горо / Miyazaki Goro / 宮崎吾朗
Автор оригинала: Урсула К. Ле Гуин / Ursula K. Le Guin
Актеры: Джуничи Окада, Аой Тешима, Бунта Сугавара, Юко Танака, Теруюки Кагава, Джан Фубуки, Такаши Найто, Мицуко Байсё, Юи Нацукава, Каору Кобаяши
Продолжительность: 01:55:32
Перевод: Дублированный, Двухголосый закадровый, Одноголосый закадровый
Субтитры: Английские, Русские (RUSCICO)
Тип субтитров: Вшитые, отключаемые.
Ссылки: World-Art aniDB
Рейтинг MPAA: PG – лицам до 13 лет обязательное присутствие родителей!
Дата мировой премьеры: 29 июля 2006,
Дата РФ премьеры: 19 апреля 2007, «RUSCICO»
Дата DVD премьеры: 1 декабря 2009, «Ruscico»
Видеокодек: MPEG-4 AVC
Битрейт видео: ~2601 kbps
Размер кадра: 1280x690
Качество видео: BDRip
Аудио:
1. Dolby Digital Русский 5.1 / 48 kHz / 448 kbps (Дублированный, RUSCIKO)
2. DTS Русский 6.1 / 48 kHz / 1536 kbps / 24-bit (Двухголосый закадровый , П. Гланц, Т. Казакова / Superbit)
3. DTS Русский 6.1 / 48 kHz / 1536 kbps / 24-bit (Одноголосый закадровый, А. Гаврилов)
4. Dolby Digital Русский 2.0 / 48 kHz / 192 kbps (Одноголосый закадровый, KARASU)
5. DTS Японский 6.1 / 48 kHz / 1536 kbps / 24-bit

Награды и номинации

Азиатская киноакадемия, 2007 год
Номинации (1):
• Лучший композитор (Тамия Терадзима)

Знаете ли вы, что...

• Съёмки фильма начались 6 сентября 2005 года и длились в общей сложности 8 месяцев и 17 дней.
• Из-за проблем с лицензированием (права на экранизацию книг Урсулы Ле Гуин принадлежат каналу Sci-Fi Channel, который в 2004 году выпустил минисериал «Легенды Земноморья») в США фильм сможет выйти не ранее 2009 года, когда истечет срок действия лицензии

BDInfo

Общее
Уникальный идентификатор : 188739955938952214576891357373702393207 (0x8DFDFE47E4DDF24C8F772DC34E34CD77)
Полное имя : D:\Tales.from.Earthsea.2006.720р.BluRay.4xRus.Jpn.HDCLUB-xmad.mkv
Формат : Matroska
Версия формата : Version 2
Размер файла : 5,78 Гбайт
Продолжительность : 1 ч. 55 м.
Общий поток : 7158 Кбит/сек
Название фильма : Tales from Earthsea (2006)
Дата кодирования : UTC 2012-11-26 15:49:19
Программа кодирования : mkvmerge v5.8.0 ('No Sleep / Pillow') built on Sep 2 2012 15:37:04
Библиотека кодирования : libebml v1.2.3 + libmatroska v1.3.0
Видео
Идентификатор : 1
Формат : AVC
Формат/Информация : Advanced Video Codec
Профиль формата : [url=mailto:[email protected]][email protected][/url]
Параметр CABAC формата : Да
Параметр ReFrames формата : 9 кадров
Идентификатор кодека : V_MPEG4/ISO/AVC
Продолжительность : 1 ч. 55 м.
Битрейт : 2601 Кбит/сек
Ширина : 1280 пикселей
Высота : 690 пикселей
Соотношение сторон : 1,855
Частота кадров : 23,976 кадра/сек
Цветовое пространство : YUV
Субдискретизация насыщенности : 4:2:0
Битовая глубина : 8 бит
Тип развёртки : Прогрессивная
Бит/(Пиксели*Кадры) : 0.123
Размер потока : 2,10 Гбайт (36%)
Библиотека кодирования : x264 core 129 r2230 1cffe9f
Настройки программы : cabac=1 / ref=9 / deblock=1:-1:-1 / analyse=0x3:0x133 / me=umh / subme=11 / psy=1 / psy_rd=0.90:0.00 / mixed_ref=1 / me_range=48 / chroma_me=1 / trellis=2 / 8x8dct=1 / cqm=0 / deadzone=21,11 / fast_pskip=0 / chroma_qp_offset=-2 / threads=12 / lookahead_threads=2 / sliced_threads=0 / nr=0 / decimate=1 / interlaced=0 / bluray_compat=0 / constrained_intra=0 / bframes=9 / b_pyramid=2 / b_adapt=2 / b_bias=0 / direct=3 / weightb=1 / open_gop=0 / weightp=2 / keyint=240 / keyint_min=24 / scenecut=40 / intra_refresh=0 / rc=crf / mbtree=0 / crf=16.0 / qcomp=0.60 / qpmin=0 / qpmax=69 / qpstep=4 / ip_ratio=1.40 / pb_ratio=1.30 / aq=1:0.80
Язык : Japanese
Default : Да
Forced : Нет
Аудио #1
Идентификатор : 2
Формат : AC-3
Формат/Информация : Audio Coding 3
Расширение режима : CM (complete main)
Идентификатор кодека : A_AC3
Продолжительность : 1 ч. 55 м.
Вид битрейта : Постоянный
Битрейт : 448 Кбит/сек
Каналы : 6 каналов
Расположение каналов : Front: L C R, Side: L R, LFE
Частота : 48,0 КГц
Битовая глубина : 16 бит
Метод сжатия : С потерями
Размер потока : 370 Мбайт (6%)
Заголовок : (AC3 5.1 @ 448 kbps - Дубляж, R5, RUSCICO)
Язык : Russian
Default : Да
Forced : Нет
Аудио #2
Идентификатор : 3
Формат : DTS
Формат/Информация : Digital Theater Systems
Профиль формата : ES
Идентификатор кодека : A_DTS
Продолжительность : 1 ч. 55 м.
Вид битрейта : Постоянный
Битрейт : 1510 Кбит/сек
Каналы : 7 каналов / 6 каналов
Расположение каналов : Front: L C R, Side: L R, Back: C, LFE / Front: L C R, Side: L R, LFE
Частота : 48,0 КГц
Битовая глубина : 24 бит
Метод сжатия : С потерями
Размер потока : 1,22 Гбайт (21%)
Заголовок : (DTS 6.1 @ 1510 kbps - Двухголосый закадровый, П. Гланц, Т. Казакова / Superbit)
Язык : Russian
Default : Нет
Forced : Нет
Аудио #3
Идентификатор : 4
Формат : DTS
Формат/Информация : Digital Theater Systems
Профиль формата : ES
Идентификатор кодека : A_DTS
Продолжительность : 1 ч. 55 м.
Вид битрейта : Постоянный
Битрейт : 1510 Кбит/сек
Каналы : 7 каналов / 6 каналов
Расположение каналов : Front: L C R, Side: L R, Back: C, LFE / Front: L C R, Side: L R, LFE
Частота : 48,0 КГц
Битовая глубина : 24 бит
Метод сжатия : С потерями
Размер потока : 1,22 Гбайт (21%)
Заголовок : (DTS 6.1 @ 1510 kbps - Одноголосый закадровый, А. Гаврилов)
Язык : Russian
Default : Нет
Forced : Нет
Аудио #4
Идентификатор : 5
Формат : AC-3
Формат/Информация : Audio Coding 3
Расширение режима : CM (complete main)
Идентификатор кодека : A_AC3
Продолжительность : 1 ч. 55 м.
Вид битрейта : Постоянный
Битрейт : 192 Кбит/сек
Каналы : 2 канала
Расположение каналов : Front: L R
Частота : 48,0 КГц
Битовая глубина : 16 бит
Метод сжатия : С потерями
Размер потока : 159 Мбайт (3%)
Заголовок : (AC3 2.0 @ 192 kbps - Одноголосый закадровый, KARASU)
Язык : Russian
Default : Нет
Forced : Нет
Аудио #5
Идентификатор : 6
Формат : DTS
Формат/Информация : Digital Theater Systems
Профиль формата : ES
Идентификатор кодека : A_DTS
Продолжительность : 1 ч. 55 м.
Вид битрейта : Постоянный
Битрейт : 1510 Кбит/сек
Каналы : 7 каналов / 6 каналов
Расположение каналов : Front: L C R, Side: L R, Back: C, LFE / Front: L C R, Side: L R, LFE
Частота : 48,0 КГц
Битовая глубина : 24 бит
Метод сжатия : С потерями
Размер потока : 624 Мбайт (11%)
Заголовок : (DTS 6.1 @ 1510 kbps - Original)
Язык : Japanese
Default : Нет
Forced : Нет
Текст #1
Идентификатор : 7
Формат : UTF-8
Идентификатор кодека : S_TEXT/UTF8
Идентификатор кодека/Информация : UTF-8 Plain Text
Заголовок : RUSCICO
Язык : Russian
Default : Нет
Forced : Нет
Текст #2
Идентификатор : 8
Формат : UTF-8
Идентификатор кодека : S_TEXT/UTF8
Идентификатор кодека/Информация : UTF-8 Plain Text
Заголовок : SRT
Язык : English
Default : Нет
Forced : Нет
Меню
00:00:00.000 : :Chapter 01
00:06:50.034 : :Chapter 02
00:10:15.030 : :Chapter 03
00:15:42.566 : :Chapter 04
00:20:11.877 : :Chapter 05
00:25:22.771 : :Chapter 06
00:27:57.382 : :Chapter 07
00:31:59.625 : :Chapter 08
00:38:54.081 : :Chapter 09
00:43:36.822 : :Chapter 10
00:46:35.000 : :Chapter 11
00:51:17.532 : :Chapter 12
00:55:24.362 : :Chapter 13
01:04:00.544 : :Chapter 14
01:10:13.125 : :Chapter 15
01:16:05.811 : :Chapter 16
01:19:41.318 : :Chapter 17
01:22:15.680 : :Chapter 18
01:26:06.828 : :Chapter 19
01:29:37.371 : :Chapter 20
01:35:41.860 : :Chapter 21
01:40:59.386 : :Chapter 22
01:44:21.546 : :Chapter 23
01:49:08.833 : :Chapter 24
01:55:31.757 : :Chapter 25
Скриншоты:
-Раздача: 24/7-Не забываем говорить спасибо, Вам не сложно, а мне приятно)))
Прошу с раздачи не уходить! Скачал сам, дай и другим скачать!!!
Приятного просмотра)))
Other forum [Profile] [PM]
Display posts from previous:    
Reply to topic

The time now is: Today 02:09

All times are GMT + 3 Hours



You cannot post new topics in this forum
You cannot reply to topics in this forum
You cannot edit your posts in this forum
You cannot delete your posts in this forum
You cannot vote in polls in this forum
You cannot attach files in this forum
You cannot download files in this forum