Today is a free download without charge Download

Bishoujo Senshi Sailor Moon Super S Sailor 9 Senshi Shuuketsu! Black-Dream-Hole no Kiseki / Sailor Moon SuperS: The Movie - Black Dream Hole / Красавица-воин Сейлор Мун Супер Эс - Фильм (1995, 1 из 1) [Raw]

Reply to topic
 
Author
Message

Omen ®

Longevity: 9 years 2 months

Posts: 181086

Торрент-статистика

Post 09-Jan-2013 23:14

[Quote]

-Bishoujo Senshi Sailor Moon Super S Sailor 9 Senshi Shuuketsu! Black-Dream-Hole no Kiseki
Sailor Moon SuperS: The Movie - Black Dream Hole
Красавица-воин Сейлор Мун Супер Эс - Фильм
- Жанр: Махо-сёдзё, приключения, драма, сёдзё
Тип: Фильм
Количество серий: 1 из 1
Продолжительность: 59мин 57сек
Дата премьеры / период выхода: 23.12.1995
Производство/студия: Япония, Toei Animation
Автор оригинала: Такэути Наоко
Режиссер: Сибата Хироки
Битрейт видео: ~3200 Кбит/сек
Размер кадра: 800 x 480
Качество видео: DVDRip
Аудио: Русская дорожка: АС-3, 192 Кбит/сек, 2 канал, 48 КГц; Японская дорожка: Vorbis, 256 Кбит/сек, 2 канала, 48 КГц
Звук: Русский (поверх японского)
Тип субтитров: Raw
Язык подключаемых субтитров: Русский

MediaInfo:

Общее
Уникальный идентификатор : 251246212767228059498413123028330398961 (0xBD0442AD63F80756AE005BB20392C4F1)
Полное имя : D:\Закаченные с Торрента\Сейлор Мун\Сейлор Мун - Super S (The Movie - Black Dream Hole(фильм))\[Sailor_Moon_SuperS][Black_Dream_Hole][R2DVDRip].mkv
Формат : Matroska
Версия формата : Version 1
Размер файла : 1,52 Гбайт
Продолжительность : 59 м.
Режим общего битрейта : Переменный
Общий поток : 3624 Кбит/сек
Дата кодирования : UTC 2008-12-28 13:27:23
Программа кодирования : mkvmerge v2.4.0 ('Fumbling Towards Ecstasy') built on Oct 11 2008 20:13:15
Библиотека кодирования : libebml v0.7.7 + libmatroska v0.8.1
Attachment : Yes / Yes
Видео
Идентификатор : 1
Формат : AVC
Формат/Информация : Advanced Video Codec
Профиль формата : [url=mailto:[email protected]][email protected][/url]
Параметр CABAC формата : Да
Параметр ReFrames формата : 12 кадров
Идентификатор кодека : V_MPEG4/ISO/AVC
Продолжительность : 59 м.
Битрейт : 3200 Кбит/сек
Ширина : 800 пикселей
Высота : 480 пикселей
Соотношение сторон : 1,667
Режим частоты кадров : Постоянный
Частота кадров : 23,976 кадра/сек
Цветовое пространство : YUV
Субдискретизация насыщенности : 4:2:0
Битовая глубина : 8 бит
Тип развёртки : Прогрессивная
Бит/(Пиксели*Кадры) : 0.348
Размер потока : 1,30 Гбайт (86%)
Заголовок : Video
Библиотека кодирования : x264 core 54 rev 600
Настройки программы : cabac=1 / ref=9 / deblock=1:1:1 / analyse=0x3:0x133 / me=umh / subme=6 / brdo=1 / mixed_ref=1 / me_range=16 / chroma_me=1 / trellis=1 / 8x8dct=1 / cqm=0 / deadzone=21,11 / chroma_qp_offset=0 / slices=2 / nr=0 / decimate=0 / mbaff=0 / bframes=3 / b_pyramid=1 / b_adapt=1 / b_bias=0 / direct=1 / wpredb=1 / bime=1 / keyint=250 / keyint_min=25 / scenecut=40 / rc=2pass / bitrate=3200 / ratetol=1.0 / rceq='blurCplx^(1-qComp)' / qcomp=0.60 / qpmin=2 / qpmax=51 / qpstep=4 / cplxblur=20.0 / qblur=0.5 / ip_ratio=1.40 / pb_ratio=1.30
Язык : Japanese
Default : Да
Forced : Нет
Аудио #1
Идентификатор : 2
Формат : Vorbis
Параметр Floor формата : 1
Идентификатор кодека : A_VORBIS
Продолжительность : 59 м.
Вид битрейта : Переменный
Битрейт : 256 Кбит/сек
Каналы : 2 канала
Частота : 48,0 КГц
Метод сжатия : С потерями
Размер потока : 110 Мбайт (7%)
Заголовок : Audio
Библиотека кодирования : Lancer b5 (UTC 2006-11-10)
Язык : Japanese
Default : Да
Forced : Нет
Аудио #2
Идентификатор : 3
Формат : AC-3
Формат/Информация : Audio Coding 3
Расширение режима : CM (complete main)
Параметр Endianness формата : Big
Идентификатор кодека : A_AC3
Продолжительность : 59 м.
Вид битрейта : Постоянный
Битрейт : 192 Кбит/сек
Каналы : 2 канала
Расположение каналов : Front: L R
Частота : 48,0 КГц
Битовая глубина : 16 бит
Метод сжатия : С потерями
Размер потока : 82,3 Мбайт (5%)
Заголовок : Audio
Язык : Russian
Default : Нет
Forced : Нет
Текст
Идентификатор : 4
Формат : SSA
Идентификатор кодека : S_TEXT/SSA
Идентификатор кодека/Информация : Sub Station Alpha
Метод сжатия : Без потерь
Заголовок : Russia
Язык : Russian
Default : Да
Forced : Нет

Эпизоды:

Sailor Moon SuperS Movie: Black Dream Hole демонстрировался в кинотеатрах вместе с двумя короткометражными фильмами: Azuki-chan Movie (никак не связан с "Сэйлормун") и Ami-chan no Hatsukoi.
Описание:
Всё начинается с того, что в три часа ночи дети, зачарованные флейтой, покидают свои дома и исчезают. Ничего не подозревая, Усаги и её подруги готовят сладости, восхищаясь кулинарным искусством своих мам, которые их когда-то всему научили, и рассуждая о том, почему же третий час называют волшебным. Чиби Уса в тот же день знакомится со странным мальчиком по имени Перуру, который умеет с помощью своей флейты заставить сладости танцевать. Злодейкой, похищающей детей, оказывается некая мадам Вадиан, с которой Сейлор-воинам придётся сразиться, а заодно узнать, что сладости могут оказаться о-о-очень опасными...
Дополнительная информация:
Перевод: Любительский (одноголосый)
Скриншоты:

Время раздачи: С 18:30 до 23:00 по будням и с 10:00 до 23:00 по выходным и праздникам
Other forum [Profile] [PM]
Display posts from previous:    
Reply to topic

The time now is: Today 22:42

All times are GMT + 3 Hours



You cannot post new topics in this forum
You cannot reply to topics in this forum
You cannot edit your posts in this forum
You cannot delete your posts in this forum
You cannot vote in polls in this forum
You cannot attach files in this forum
You cannot download files in this forum