Today is a free download without charge Download

Kumo no Mukou, Yakusoku no Basho / The Place Promised in Our Early Days / Beyond the Clouds, The Promised Place / За облаками (2004) BDRip 400p RAW+RUS(int)+JAP+SUB HWP

Reply to topic
 
Author
Message

Omen ®

Longevity: 9 years 2 months

Posts: 181086

Торрент-статистика

Post 09-Jan-2013 23:14

[Quote]

-Kumo no Mukou, Yakusoku no Basho / The Place Promised in Our Early Days / Beyond the Clouds, The Promised Place / За облаками- Перевод: Профессиональный (полное дублирование) [XL Media]
Субтитры: Russain (XL Media), Russain (Forced), Ukrainian, English - *srt, софтсаб
Формат: BDRip, AVI, XviD, AC3
Страна: Япония
Жанр: фантастика, романтика, драма
Продолжительность: полнометражный фильм, 91 мин.
Дата премьеры: Премьера: 20.11.2004
Автор оригинала: Синкай Макото
Режиссер: Синкай Макото
Год выпуска: 2004
Cтудия:
Описание:
Согласно альтернативному варианту развития истории, после поражения во второй мировой войне Япония оказалась разделённой между союзниками - северный остров Хоккайдо аннексировал Советский Союз, а Хонсю и другими южными островами овладели американцы. Летом 1996 года Советы начали сооружать в своей зоне оккупации загадочное сооружение - башню столь исполинских размеров, что трое товарищей-старшеклассников с американского Хонсю, гуляющих вместе в пору школьных каникул, могли отчётливо видеть её контуры, возносящиеся в заоблачную высь. Друзья дали друг другу зарок, что однажды они построят аэроплан и раскроют секрет гигантской башни, но все планы рухнули, когда красавица Саюри Саватари, предмет тайных воздыханий двух её друзей, начала испытывать симптомы странной сонной болезни, и её отправили на лечение в Токио, а после окончания средней школы пути ребят разошлись. Спустя три года повзрослевший Хироки Фудзисава случайно узнаёт, что Саюри с тех пор пребывает в коме, и обращается за помощью к своему прежнему закадычному другу Такуя Сиракава, чтобы привести девушку в себя. Он ещё не знает, что бессознательное состояние Саюри напрямую связано с таинственной северной башней... © Алексей Фадеев, World Art
Рейтинг на World-art: 8.7 из 10 | Рейтинг на AniDB: 7.93 из 10 | Хардсаб: отсутствует
Видео: 704x400 (1.76:1), 23.976 fps, XviD build 65 ~1800 kbps avg, 0.267 bit/pixel
Аудио# 1: RU - 48 kHz, AC3 Dolby Digital, 3/2 (L,C,R,l,r) + LFE ch, ~448.00 kbps avg | Дубляж, XL Media |
Аудио# 2: JP - 48 kHz, AC3 Dolby Digital, 3/2 (L,C,R,l,r) + LFE ch, ~448.00 kbps avg | Оригинал |

MediaInfo

Общее
Полное имя : The_Place_Promised_in_Our_Early_Days\The_Place_Promised_in_Our_Early_Days.avi
Формат : AVI
Формат/Информация : Audio Video Interleave
Размер файла : 1,71 Гбайт
Продолжительность : 1 ч. 30 м.
Общий поток : 2710 Кбит/сек
Программа кодирования : VirtualDubMod 1.5.10.2 (build 2540/release)
Библиотека кодирования : VirtualDubMod build 2540/release
Видео
Идентификатор : 0
Формат : MPEG-4 Visual
Профиль формата : Advanced [email protected]
Параметр BVOP формата : 1
Параметр QPel формата : Нет
Параметр GMC формата : Без точки перехода
Параметр матрицы формата : Выборочная
Идентификатор кодека : XVID
Идентификатор кодека/Подсказка : XviD
Продолжительность : 1 ч. 30 м.
Битрейт : 1800 Кбит/сек
Ширина : 704 пикс.
Высота : 400 пикс.
Соотношение сторон : 16:9
Частота кадров : 23,976 кадр/сек
Цветовое пространство : YUV
Подвыборка цветности : 4:2:0
Битовая глубина : 8 бит
Тип развёртки : Прогрессивная
Метод сжатия : С потерями
Бит/(Пиксели*Кадры) : 0.267
Размер потока : 1,14 Гбайт (66%)
Библиотека кодирования : XviD 65
Аудио #1
Идентификатор : 1
Формат : AC-3
Формат/Информация : Audio Coding 3
Расширение режима : CM (complete main)
Идентификатор кодека : 2000
Продолжительность : 1 ч. 30 м.
Вид битрейта : Постоянный
Битрейт : 448 Кбит/сек
Канал(ы) : 6 канала(ов)
Расположение каналов : Front: L C R, Side: L R, LFE
Частота : 48,0 КГц
Битовая глубина : 16 бит
Метод сжатия : С потерями
Размер потока : 289 Мбайт (17%)
Выравнивание : Разделение по промежуткам
Продолжительность промежутка : 42 мс. (1,00 видеокадр)
Время предзагрузки промежутка : 500 ms
Заголовок : Русский [Дубляж, XL Media]
Аудио #2
Идентификатор : 2
Формат : AC-3
Формат/Информация : Audio Coding 3
Расширение режима : CM (complete main)
Идентификатор кодека : 2000
Продолжительность : 1 ч. 30 м.
Вид битрейта : Постоянный
Битрейт : 448 Кбит/сек
Канал(ы) : 6 канала(ов)
Расположение каналов : Front: L C R, Side: L R, LFE
Частота : 48,0 КГц
Битовая глубина : 16 бит
Метод сжатия : С потерями
Размер потока : 289 Мбайт (17%)
Выравнивание : Разделение по промежуткам
Продолжительность промежутка : 42 мс. (1,00 видеокадр)
Время предзагрузки промежутка : 500 ms
Заголовок : Японский [Оригинал]
Скриншоты:


Время раздачи: с 9:00 до 23:00
Other forum [Profile] [PM]
Display posts from previous:    
Reply to topic

The time now is: Today 02:21

All times are GMT + 3 Hours



You cannot post new topics in this forum
You cannot reply to topics in this forum
You cannot edit your posts in this forum
You cannot delete your posts in this forum
You cannot vote in polls in this forum
You cannot attach files in this forum
You cannot download files in this forum