Today is a free download without charge Download

Mai Mai Shinko to Sennen no Mahou / Mai Mai Shinko and the Millennium-Old Magic / Вихрастая Шинко и магия тысячелетий [2009, MV, 1 из 1] HDRip raw+rusx2

Reply to topic
 
Author
Message

Omen ®

Longevity: 9 years 2 months

Posts: 181086

Торрент-статистика

Post 09-Jan-2013 23:14

[Quote]

-マイマイ新子と千年の魔法 / Mai Mai Shinko and the Millennium-Old Magic / Вихрастая Шинко и магия тысячелетий-
Жанр: Повседневность, история
Тип: Полнометражный фильм
Продолжительность: 1 ч. 35 м.
Дата премьеры / период выхода: 15.08.2009
Режиссер: Катабути Сунао
Автор оригинала: Такаги Нобуко
Производство/студия:

Качество видео: HDRip
Видео: AVC, 704x396, 16:9, 23,976 кадра/сек, ~1400 кбит/с
Аудио #1: AC-3, 48 КГц, 6 ch, ~384 кбит/с Звук: Русский (любительский двухголосый, закадровый). Озвучка: Metalrus & Emeri
Аудио #2: AC-3, 48 КГц, 6 ch, ~384 кбит/с Звук: Русский (профессиональный многоголосый, закадровый). Озвучка: студия "Омикрон"
Аудио #3: AC-3, 48 КГц, 6 ch, ~384 кбит/с Звук: Японский.
Тип субтитров: Русские подключаемые. Перевод: drauglin
Описание:Япония, 1955 год. Тихий городок Хофу окружен рисовыми полями, жизнь течет медленно и размеренно, а новости цивилизации доносятся лишь слабыми отголосками. Но 9-летняя Синко Аоки, вихрастый клубок кипучей энергии и лидер местной ребятни, никогда не скучает – ведь кругом столько загадочного и интересного! От деда и школьных учителей она узнала, что когда-то их город был столицей земли Суо, откуда по Внутреннему морю рукой подать до Киото – древней имперской столицы. А еще тысячу лет назад в доме у моря жила дочка губернатора, ровесница Синко. Какой она была? Вот бы им встретиться!
Фильм рассказывает о мире детства – чистом, наивном и простом, который не имеет границ, где нет понятия невозможного. Захотев, можно подружиться и с немного странной приезжей из Токио, и с принцессой из далекого прошлого. Возможно все, пока есть сила духа и воображение – такова тысячелетняя магия, к которой прикоснулись Синко и ее друзья. Вырастая, мы теряем эту связь, именно поэтому детство человека освещает всю его дальнейшую жизнь. Так было в эпоху Хэйан, так будет и впредь!
© Hollow, World Art

MediaInfo

Код:
Общее
Полное имя                               : R:\torrent\Mai_Mai_Shinko_to_Sennen_no_Mahou_[rus_jap_sub]_[HWP]\Mai_Mai_Shinko_to_Sennen_no_Mahou_[rus_jap_sub]_[HWP].avi
Формат                                   : AVI
Формат/Информация                        : Audio Video Interleave
Размер файла                             : 1,71 Гбайт
Продолжительность                        : 1 ч. 35 м.
Общий поток                              : 2571 Кбит/сек
Программа кодирования                    : VirtualDubMod 1.5.10.2 (build 2540/release)
Библиотека кодирования                   : VirtualDubMod build 2540/release
Видео
Идентификатор                            : 0
Формат                                   : MPEG-4 Visual
Профиль формата                          : Advanced [email protected]
Параметр BVOP формата                    : 1
Параметр QPel формата                    : Нет
Параметр GMC формата                     : Без точки перехода
Параметр матрицы формата                 : Выборочная
Идентификатор кодека                     : XVID
Идентификатор кодека/Подсказка           : XviD
Продолжительность                        : 1 ч. 35 м.
Битрейт                                  : 1400 Кбит/сек
Ширина                                   : 704 пикселя
Высота                                   : 396 пикселей
Соотношение сторон                       : 16:9
Частота кадров                           : 23,976 кадра/сек
Цветовое пространство                    : YUV
Субдискретизация насыщенности            : 4:2:0
Битовая глубина                          : 8 бит
Тип развёртки                            : Прогрессивная
Метод сжатия                             : С потерями
Бит/(Пиксели*Кадры)                      : 0.209
Размер потока                            : 951 Мбайт (54%)
Библиотека кодирования                   : XviD 64
Аудио #1
Идентификатор                            : 1
Формат                                   : AC-3
Формат/Информация                        : Audio Coding 3
Расширение режима                        : CM (complete main)
Параметр Endianness формата              : Big
Идентификатор кодека                     : 2000
Продолжительность                        : 1 ч. 35 м.
Вид битрейта                             : Постоянный
Битрейт                                  : 384 Кбит/сек
Каналы                                   : 6 каналов
Расположение каналов                     : Front: L C R, Side: L R, LFE
Частота                                  : 48,0 КГц
Битовая глубина                          : 16 бит
Метод сжатия                             : С потерями
Размер потока                            : 261 Мбайт (15%)
Выравнивание                             : Разделение по промежуткам
Продолжительность промежутка             : 42  мс. (1,00 видеокадр)
Время предзагрузки промежутка            : 500  мс.
Заголовок                                : RUS [Metalrus & Emeri (TF-AniGroup)]
Аудио #2
Идентификатор                            : 2
Формат                                   : AC-3
Формат/Информация                        : Audio Coding 3
Расширение режима                        : CM (complete main)
Параметр Endianness формата              : Big
Идентификатор кодека                     : 2000
Продолжительность                        : 1 ч. 35 м.
Вид битрейта                             : Постоянный
Битрейт                                  : 384 Кбит/сек
Каналы                                   : 6 каналов
Расположение каналов                     : Front: L C R, Side: L R, LFE
Частота                                  : 48,0 КГц
Битовая глубина                          : 16 бит
Метод сжатия                             : С потерями
Размер потока                            : 261 Мбайт (15%)
Выравнивание                             : Разделение по промежуткам
Продолжительность промежутка             : 42  мс. (1,00 видеокадр)
Время предзагрузки промежутка            : 500  мс.
Заголовок                                : RUS [MVO, студия "Омикрон"]
Аудио #3
Идентификатор                            : 3
Формат                                   : AC-3
Формат/Информация                        : Audio Coding 3
Расширение режима                        : CM (complete main)
Параметр Endianness формата              : Big
Идентификатор кодека                     : 2000
Продолжительность                        : 1 ч. 35 м.
Вид битрейта                             : Постоянный
Битрейт                                  : 384 Кбит/сек
Каналы                                   : 6 каналов
Расположение каналов                     : Front: L C R, Side: L R, LFE
Частота                                  : 48,0 КГц
Битовая глубина                          : 16 бит
Метод сжатия                             : С потерями
Размер потока                            : 261 Мбайт (15%)
Выравнивание                             : Разделение по промежуткам
Продолжительность промежутка             : 42  мс. (1,00 видеокадр)
Время предзагрузки промежутка            : 500  мс.
Заголовок                                : JAP [Оригинал]
Ссылки:
Ani-DB ::: World Art
Скриншоты:
       
       
Время раздачи: 24/7 до первых 3х скачавших
Other forum [Profile] [PM]
Display posts from previous:    
Reply to topic

The time now is: Today 02:49

All times are GMT + 3 Hours



You cannot post new topics in this forum
You cannot reply to topics in this forum
You cannot edit your posts in this forum
You cannot delete your posts in this forum
You cannot vote in polls in this forum
You cannot attach files in this forum
You cannot download files in this forum