Today is a free download without charge Download

Потерянные сокровища Америки. Саванн / America’s lost treasures (2012) SATRip

Reply to topic
 
Author
Message

Omen ®

Longevity: 7 years 10 months

Posts: 181087

Торрент-статистика

Post 09-Jan-2013 23:12

[Quote]

- Потерянные сокровища Америки. Саванн / America’s lost treasures (2012) SATRip - Режиссер / Телекомпания: National Geographic
Русское название: Потерянные сокровища Америки
Оригинальное название: America’s lost treasures
Год выпуска: 2012
Жанр: Документальный
Описание:
По всей Америке, в подвалах и сараях, чердаках и во дворах, остались следы нашей национальной истории. Объекты с неожиданным и невероятным значением реальные истории только и ждут, чтобы быть раскрыты. А теперь National Geographic Channel отправился на поиски, чтобы сделать это! В нашем новом 10 серийном блоке, Америка Потерянные сокровища, мы идем в города по всей Америке в поисках исторических объектов с неожиданным значением - и мы хотим, чтобы вы были частью шоу! У вас есть ружье гражданской войны? Письма и документы из отцов-основателей? Древние индейские артефакты, антикварные музыкальные инструменты, или поп-культуры коллекционирования? Если у вас есть ценные реликвии семьи, или найти объект, с подключением к истории и большую историю позади него, ваш артефакт может иметь право на $ 10.000 премии и включение в будущем National Geographic экспонат.
Перевод: Профессиональный (одноголосый, закадровый)
Озучено: АРК-ТВ
Продолжительность: ~ 00:45:00
Видеокодек: XVID
Битрейт видео: ~1749 kb/s
Размер кадра: 720 x 400
Качество видео: SATRip
Аудиокодек: MP3, 2ch.
Битрейт аудио: 128 kb/s

MediaInfo

Формат : AVI
Формат/Информация : Audio Video Interleave
Размер файла : 608 Мбайт
Продолжительность : 44 м.
Общий поток : 1890 Кбит/сек
Библиотека кодирования : TMPGEnc 4.0 XPress Version. 4.7.7.307
Видео
Идентификатор : 0
Формат : MPEG-4 Visual
Профиль формата : Advanced [email protected]
Параметр BVOP формата : 2
Параметр QPel формата : Нет
Параметр GMC формата : Без точки перехода
Параметр матрицы формата : Default (H.263)
Режим смешивания : Сжатый битовый поток
Идентификатор кодека : XVID
Идентификатор кодека/Подсказка : XviD
Продолжительность : 44 м.
Битрейт : 1749 Кбит/сек
Ширина : 720 пикселей
Высота : 400 пикселей
Соотношение сторон : 16:9
Частота кадров : 25,000 кадров/сек
Цветовое пространство : YUV
Субдискретизация насыщенности : 4:2:0
Битовая глубина : 8 бит
Тип развёртки : Прогрессивная
Метод сжатия : С потерями
Бит/(Пиксели*Кадры) : 0.243
Размер потока : 563 Мбайт (93%)
Библиотека кодирования : XviD 1.2.1 (UTC 2008-12-04)
Аудио
Идентификатор : 1
Формат : MPEG Audio
Версия формата : Version 1
Профиль формата : Layer 3
Режим : Joint stereo
Идентификатор кодека : 55
Идентификатор кодека/Подсказка : MP3
Продолжительность : 44 м.
Вид битрейта : Постоянный
Битрейт : 128 Кбит/сек
Каналы : 2 канала
Частота : 48,0 КГц
Метод сжатия : С потерями
Размер потока : 41,2 Мбайт (7%)
Выравнивание : Соединение по промежуткам
Продолжительность промежутка : 40 мс. (1,01 видеокадр)
Время предзагрузки промежутка : 384 мс.
Скриншоты:
       
Other forum [Profile] [PM]
Display posts from previous:    
Reply to topic

The time now is: Today 05:26

All times are GMT + 3 Hours



You cannot post new topics in this forum
You cannot reply to topics in this forum
You cannot edit your posts in this forum
You cannot delete your posts in this forum
You cannot vote in polls in this forum
You cannot attach files in this forum
You cannot download files in this forum