Today is a free download without charge Download

Машины: разобрать и продать. Воины на выходные / Strippers. Cars for cash (2012) SATRip

Reply to topic
 
Author
Message

Omen ®

Longevity: 7 years 10 months

Posts: 181087

Торрент-статистика

Post 09-Jan-2013 23:12

[Quote]

- Машины: разобрать и продать. Воины на выходные / Strippers. Cars for cash (2012) SATRip - Режиссер / Телекомпания: National Geographic
Русское название: Машины: разобрать и продать.Бандитское авто
Оригинальное название: Strippers. Cars for cash
Год выпуска: 2012
Жанр: Документальный, научно-познавательный, история, автомобилестроение
Выпущено: США, National Geographic Channel
Описание:
Обычно тот или иной автомобиль пользуется спросом благодаря своей надежности, скорости и т.п., но для авторазборщиков все они лишь конструкция из отдельных деталей, которую нужно разобрать на запчасти и продать за приличные деньги. В этом новом реалити-сериале соревнуются две команды авторазборщиков: их задача первыми найти как можно более дешевые автомобили, разобрать их и постараться продать все части так, чтобы получить максимальную прибыль. Смогут ли эти «автовандалы» заработать на автохламе?
Текст читал: Михаил Тихонов
Перевод: Профессиональный одноголосый закадровый
Продолжительность: ~ 00:45:05
Видеокодек: XVID
Битрейт видео: ~1700 kb/s
Размер кадра: 704 x 400
Качество видео: SATRip
Аудиокодек: MP3, 2ch.
Битрейт аудио: 128 kb/s

MediaInfo

Формат : AVI
Формат/Информация : Audio Video Interleave
Размер файла : 593 Мбайт
Продолжительность : 45 м.
Общий поток : 1837 Кбит/сек
Библиотека кодирования : VirtualDub build 34807/release
Видео
Идентификатор : 0
Формат : MPEG-4 Visual
Профиль формата : Advanced [email protected]
Параметр BVOP формата : 2
Параметр QPel формата : Нет
Параметр GMC формата : Без точки перехода
Параметр матрицы формата : Default (H.263)
Режим смешивания : Сжатый битовый поток
Идентификатор кодека : XVID
Идентификатор кодека/Подсказка : XviD
Продолжительность : 45 м.
Битрейт : 1700 Кбит/сек
Ширина : 704 пикселя
Высота : 400 пикселей
Соотношение сторон : 16:9
Частота кадров : 25,000 кадров/сек
Цветовое пространство : YUV
Субдискретизация насыщенности : 4:2:0
Битовая глубина : 8 бит
Тип развёртки : Прогрессивная
Метод сжатия : С потерями
Бит/(Пиксели*Кадры) : 0.241
Размер потока : 548 Мбайт (93%)
Библиотека кодирования : XviD 64
Аудио
Идентификатор : 1
Формат : MPEG Audio
Версия формата : Version 1
Профиль формата : Layer 3
Режим : Joint stereo
Расширение режима : MS Stereo
Идентификатор кодека : 55
Идентификатор кодека/Подсказка : MP3
Продолжительность : 45 м.
Вид битрейта : Постоянный
Битрейт : 128 Кбит/сек
Каналы : 2 канала
Частота : 48,0 КГц
Метод сжатия : С потерями
Размер потока : 41,3 Мбайт (7%)
Выравнивание : Разделение по промежуткам
Продолжительность промежутка : 40 мс. (1,00 видеокадр)
Время предзагрузки промежутка : 500 мс.
Скриншоты:
       
Other forum [Profile] [PM]
Display posts from previous:    
Reply to topic

The time now is: Today 01:24

All times are GMT + 3 Hours



You cannot post new topics in this forum
You cannot reply to topics in this forum
You cannot edit your posts in this forum
You cannot delete your posts in this forum
You cannot vote in polls in this forum
You cannot attach files in this forum
You cannot download files in this forum