Today is a free download without charge Download

Секунды до катастрофы (6 сезон) 8 серий из 10/ Seconds From Disaster (Season 6) (2012) SATRip (01.01.2013 обновление)

Reply to topic
 
Author
Message

Omen ®

Longevity: 7 years 10 months

Posts: 181087

Торрент-статистика

Post 09-Jan-2013 23:12

[Quote]

-Секунды до катастрофы (6 сезон) / Seconds From Disaster (Season 6) (2012) SATRip- Русское название: Секунды до катастрофы (6 сезон)
Оригинальное название: Seconds From Disaster (Season 6)
Режиссер / Телекомпания: National Geographic Channel
Год выпуска: 2012
Жанр: Документальный, Видовой
Описание:
Американский документальный телевизионный сериал, посвящённый расследованию техногенных катастроф и стихийных бедствий в современной истории, а также анализу причин и событий, которые привели к возникновению каждой из катастроф. Для посекундной реконструкции событий в сериале используются официальные документы, интервью и свидетельские показания.
Продолжительность: ~00:45:00 в каждой серии
Перевод: Одноголосый закадровый, профессиональный
Видеокодек: Xvid
Битрейт видео: ~1950 kbps
Размер кадра: 704x400 (1.76:1)
Качество видео: SATRip
Аудиокодек: MP3
Битрейт аудио RU: 192 kbps
Битрейт аудио EN (начиная с 6 серии): 192 kbps

Список серий и информация по каждой из них

Серия 01. Норвежская бойня: Глазами очевидца / Norway Massacre: I Was There:

Описание: 22 июля 2011 года террорист-одиночка Андерс Беринг Брейвик совершил самое крупное массовое убийство со времен Второй мировой войны в Европе. Теракт начался со взрыва в Осло и закончился расстрелом десятков подростков в молодежном лагере на небольшом острове Утойя. Этот документальный фильм рассказывает о событиях того рокового дня и рассматривает вопрос о том, что можно было сделать, чтобы остановить бойню, учиненную Брейвиком.
Продолжительность: 00:45:06
Видеокодек: Xvid
Битрейт видео: ~1950 kbps
Размер кадра: 704x400
Качество видео: SATRip
Аудиокодек: MP3
Битрейт аудио: 192 Кбит/с
       

MediaInfo

General
Complete name : D:\Фильмы и сериалы\Секунды до катастрофы (6 сезон) (2012)\6x01 Норвежская бойня - Глазами очевидца (Norway Massacre - I Was There).avi
Format : AVI
Format/Info : Audio Video Interleave
File size : 616 MiB
Duration : 45mn 5s
Overall bit rate : 1 909 Kbps
Writing application : VirtualDubMod 1.5.10.3 | www.virtualdub-fr.org || (build 2550/release)
Writing library : VirtualDubMod build 2550/release
Video
ID : 0
Format : MPEG-4 Visual
Format profile : Advanced [email protected]
Format settings, BVOP : 2
Format settings, QPel : No
Format settings, GMC : No warppoints
Format settings, Matrix : Default (H.263)
Codec ID : XVID
Codec ID/Hint : XviD
Duration : 45mn 5s
Bit rate : 1 705 Kbps
Width : 704 pixels
Height : 400 pixels
Display aspect ratio : 16:9
Frame rate : 29.970 fps
Color space : YUV
Chroma subsampling : 4:2:0
Bit depth : 8 bits
Scan type : Progressive
Compression mode : Lossy
Bits/(Pixel*Frame) : 0.202
Stream size : 550 MiB (89%)
Writing library : XviD 1.2.1 (UTC 2008-12-04)
Audio
ID : 1
Format : MPEG Audio
Format version : Version 1
Format profile : Layer 3
Codec ID : 55
Codec ID/Hint : MP3
Duration : 45mn 5s
Bit rate mode : Constant
Bit rate : 192 Kbps
Channel(s) : 2 channels
Sampling rate : 44.1 KHz
Compression mode : Lossy
Delay relative to video : 9ms
Stream size : 61.9 MiB (10%)
Alignment : Split accross interleaves
Interleave, duration : 33 ms (1.00 video frame)
Interleave, preload duration : 500 ms
Writing library : LAME3.99

Серия 02. Джонстаунская секта самоубийц / Jonestown Cult Suicide:

Описание: Рассказ о том, как в ходе расследования конгрессмен Лео Райан вскрыл кошмар происходивший в общине проповедника Джима Джонса в джунглях Гайаны.
Продолжительность: 00:45:01
Видеокодек: Xvid
Битрейт видео: ~1770 kbps
Размер кадра: 704x400
Качество видео: SATRip
Аудиокодек: MP3
Битрейт аудио: 192 Кбит/с
       

MediaInfo

General
Complete name : D:\Фильмы и сериалы\Секунды до катастрофы (6
сезон) (2012)\6x02 Джонстаунская секта самоубийц (Jonestown Cult Suicide).avi
Format : AVI
Format/Info : Audio Video Interleave
File size : 615 MiB
Duration : 45mn 1s
Overall bit rate : 1 911 Kbps
Writing application : VirtualDubMod 1.5.10.3 | www.virtualdub-fr.org
|| (build 2550/release)
Writing library : VirtualDubMod build 2550/release
Video
ID : 0
Format : MPEG-4 Visual
Format profile : Advanced [email protected]
Format settings, BVOP : 2
Format settings, QPel : No
Format settings, GMC : No warppoints
Format settings, Matrix : Default (H.263)
Codec ID : XVID
Codec ID/Hint : XviD
Duration : 45mn 1s
Bit rate : 1 709 Kbps
Width : 704 pixels
Height : 400 pixels
Display aspect ratio : 16:9
Frame rate : 25.000 fps
Color space : YUV
Chroma subsampling : 4:2:0
Bit depth : 8 bits
Scan type : Progressive
Compression mode : Lossy
Bits/(Pixel*Frame) : 0.243
Stream size : 550 MiB (89%)
Writing library : XviD 1.2.1 (UTC 2008-12-04)
Audio
ID : 1
Format : MPEG Audio
Format version : Version 1
Format profile : Layer 3
Codec ID : 55
Codec ID/Hint : MP3
Duration : 45mn 1s
Bit rate mode : Constant
Bit rate : 192 Kbps
Channel(s) : 2 channels
Sampling rate : 48.0 KHz
Compression mode : Lossy
Stream size : 61.8 MiB (10%)
Alignment : Aligned on interleaves
Interleave, duration : 40 ms (1.00 video frame)
Interleave, preload duration : 504 ms
Writing library : LAME3.99

Серия 03. Пожар в кабине / Fire in the Cockpit:

Описание: Станьте очевидцем последних минут на борту самолета рейса 111 компании "Swissair". Он упал в Атлантический океан около Канады в сентябре 1998 года.
Продолжительность: 00:44:59
Видеокодек: Xvid
Битрейт видео: ~1770 kbps
Размер кадра: 704x400
Качество видео: SATRip
Аудиокодек: MP3
Битрейт аудио: 192 Кбит/с
       

MediaInfo

General
Complete name : D:\Фильмы и сериалы\Секунды до катастрофы (6 сезон) (2012)\6x03 Пожар в кабине (Fire in the Cockpit).avi
Format : AVI
Format/Info : Audio Video Interleave
File size : 513 MiB
Duration : 44mn 59s
Overall bit rate : 1 594 Kbps
Writing application : VirtualDubMod 1.5.10.3 | www.virtualdub-fr.org || (build 2550/release)
Writing library : VirtualDubMod build 2550/release
Video
ID : 0
Format : MPEG-4 Visual
Format profile : Advanced [email protected]
Format settings, BVOP : 2
Format settings, QPel : No
Format settings, GMC : No warppoints
Format settings, Matrix : Default (H.263)
Codec ID : XVID
Codec ID/Hint : XviD
Duration : 44mn 59s
Bit rate : 1 392 Kbps
Width : 704 pixels
Height : 400 pixels
Display aspect ratio : 16:9
Frame rate : 25.000 fps
Color space : YUV
Chroma subsampling : 4:2:0
Bit depth : 8 bits
Scan type : Progressive
Compression mode : Lossy
Bits/(Pixel*Frame) : 0.198
Stream size : 448 MiB (87%)
Writing library : XviD 1.2.1 (UTC 2008-12-04)
Audio
ID : 1
Format : MPEG Audio
Format version : Version 1
Format profile : Layer 3
Codec ID : 55
Codec ID/Hint : MP3
Duration : 44mn 59s
Bit rate mode : Constant
Bit rate : 192 Kbps
Channel(s) : 2 channels
Sampling rate : 48.0 KHz
Compression mode : Lossy
Stream size : 61.8 MiB (12%)
Alignment : Aligned on interleaves
Interleave, duration : 40 ms (1.00 video frame)
Interleave, preload duration : 504 ms
Writing library : LAME3.99

Серия 04. Падение Черного ястреба / Black Hawk Down:

Описание: Узнайте подробности провалившейся военной операции США по поимке мятежного лидера боевиков Мухаммеда Фараха Айдида в Сомали в 1993 году.
Продолжительность: 00:44:59
Видеокодек: Xvid
Битрейт видео: ~1770 kbps
Размер кадра: 704x400
Качество видео: SATRip
Аудиокодек: MP3
Битрейт аудио: 192 Кбит/с
       

MediaInfo

General
Complete name : D:\Фильмы и сериалы\Секунды до катастрофы (6 сезон) (2012)\6x04 Падение Черного ястреба (Black Hawk Down).avi
Format : AVI
Format/Info : Audio Video Interleave
File size : 635 MiB
Duration : 45mn 0s
Overall bit rate : 1 974 Kbps
Writing application : VirtualDubMod 1.5.10.3 | www.virtualdub-fr.org || (build 2550/release)
Writing library : VirtualDubMod build 2550/release
Video
ID : 0
Format : MPEG-4 Visual
Format profile : Advanced [email protected]
Format settings, BVOP : 2
Format settings, QPel : No
Format settings, GMC : No warppoints
Format settings, Matrix : Default (H.263)
Codec ID : XVID
Codec ID/Hint : XviD
Duration : 45mn 0s
Bit rate : 1 772 Kbps
Width : 704 pixels
Height : 400 pixels
Display aspect ratio : 16:9
Frame rate : 25.000 fps
Color space : YUV
Chroma subsampling : 4:2:0
Bit depth : 8 bits
Scan type : Progressive
Compression mode : Lossy
Bits/(Pixel*Frame) : 0.252
Stream size : 570 MiB (90%)
Writing library : XviD 1.2.1 (UTC 2008-12-04)
Audio
ID : 1
Format : MPEG Audio
Format version : Version 1
Format profile : Layer 3
Codec ID : 55
Codec ID/Hint : MP3
Duration : 45mn 0s
Bit rate mode : Constant
Bit rate : 192 Kbps
Channel(s) : 2 channels
Sampling rate : 48.0 KHz
Compression mode : Lossy
Stream size : 61.8 MiB (10%)
Alignment : Aligned on interleaves
Interleave, duration : 40 ms (1.00 video frame)
Interleave, preload duration : 504 ms
Writing library : LAME3.99
Encoding settings : -m s -V 4 -q 2 -lowpass 18.6 -b 192

Серия 05. В мертвой зоне / Into The Death Zone:

Описание: История о том, как погибли девять альпинистов на горе Эверест в 1996 году. Это были два cамых страшных дня в истории восхождений на эту гору.
Продолжительность: 00:44:59
Видеокодек: Xvid
Битрейт видео: ~1770 kbps
Размер кадра: 704x400
Качество видео: SATRip
Аудиокодек: MP3
Битрейт аудио: 192 Кбит/с
       

MediaInfo

General
Complete name : D:\Фильмы и сериалы\Секунды до катастрофы (6 сезон) (2012)\6x05 В мертвой зоне (Into The Death Zone).avi
Format : AVI
Format/Info : Audio Video Interleave
File size : 476 MiB
Duration : 44mn 59s
Overall bit rate : 1 480 Kbps
Writing application : VirtualDubMod 1.5.10.3 | www.virtualdub-fr.org || (build 2550/release)
Writing library : VirtualDubMod build 2550/release
Video
ID : 0
Format : MPEG-4 Visual
Format profile : Advanced [email protected]
Format settings, BVOP : 2
Format settings, QPel : No
Format settings, GMC : No warppoints
Format settings, Matrix : Default (H.263)
Codec ID : XVID
Codec ID/Hint : XviD
Duration : 44mn 59s
Bit rate : 1 279 Kbps
Width : 704 pixels
Height : 400 pixels
Display aspect ratio : 16:9
Frame rate : 25.000 fps
Color space : YUV
Chroma subsampling : 4:2:0
Bit depth : 8 bits
Scan type : Progressive
Compression mode : Lossy
Bits/(Pixel*Frame) : 0.182
Stream size : 411 MiB (86%)
Writing library : XviD 1.2.1 (UTC 2008-12-04)
Audio
ID : 1
Format : MPEG Audio
Format version : Version 1
Format profile : Layer 3
Codec ID : 55
Codec ID/Hint : MP3
Duration : 44mn 59s
Bit rate mode : Constant
Bit rate : 192 Kbps
Channel(s) : 2 channels
Sampling rate : 48.0 KHz
Compression mode : Lossy
Stream size : 61.8 MiB (13%)
Alignment : Aligned on interleaves
Interleave, duration : 40 ms (1.00 video frame)
Interleave, preload duration : 504 ms
Writing library : LAME3.99

Серия 06. Смертельный ужас над Токио / Terrified Over Tokyo:

Описание: В 1985 году Боинг-747 врезался в гору, погубив 520 человек. Это была самая страшная катастрофа с участием одного самолета в истории авиации.
Продолжительность: 00:45:00
Видеокодек: Xvid
Битрейт видео: ~1770 kbps
Размер кадра: 704x400
Качество видео: SATRip
Аудиокодек: MP3
Битрейт аудио: 192 Кбит/с
       

MediaInfo

General
Complete name : D:\Фильмы и сериалы\Секунды до катастрофы (6 сезон) (2012)\6x06 Смертельный ужас над Токио (Terrified Over Tokyo).avi
Format : AVI
Format/Info : Audio Video Interleave
File size : 620 MiB
Duration : 44mn 59s
Overall bit rate : 1 927 Kbps
Writing application : VirtualDubMod 1.5.10.3 | www.virtualdub-fr.org || (build 2550/release)
Writing library : VirtualDubMod build 2550/release
Video
ID : 0
Format : MPEG-4 Visual
Format profile : Advanced [email protected]
Format settings, BVOP : 2
Format settings, QPel : No
Format settings, GMC : No warppoints
Format settings, Matrix : Default (H.263)
Codec ID : XVID
Codec ID/Hint : XviD
Duration : 44mn 59s
Bit rate : 1 528 Kbps
Width : 704 pixels
Height : 400 pixels
Display aspect ratio : 16:9
Frame rate : 25.000 fps
Color space : YUV
Chroma subsampling : 4:2:0
Bit depth : 8 bits
Scan type : Progressive
Compression mode : Lossy
Bits/(Pixel*Frame) : 0.217
Stream size : 492 MiB (79%)
Writing library : XviD 1.2.1 (UTC 2008-12-04)
Audio #1
ID : 1
Format : MPEG Audio
Format version : Version 1
Format profile : Layer 3
Codec ID : 55
Codec ID/Hint : MP3
Duration : 44mn 59s
Bit rate mode : Constant
Bit rate : 192 Kbps
Channel(s) : 2 channels
Sampling rate : 48.0 KHz
Compression mode : Lossy
Stream size : 61.8 MiB (10%)
Alignment : Aligned on interleaves
Interleave, duration : 40 ms (1.00 video frame)
Interleave, preload duration : 504 ms
Title : Russian
Writing library : LAME3.99
Audio #2
ID : 2
Format : MPEG Audio
Format version : Version 1
Format profile : Layer 3
Mode : Joint stereo
Mode extension : MS Stereo
Codec ID : 55
Codec ID/Hint : MP3
Duration : 44mn 59s
Bit rate mode : Constant
Bit rate : 192 Kbps
Channel(s) : 2 channels
Sampling rate : 48.0 KHz
Compression mode : Lossy
Stream size : 61.8 MiB (10%)
Alignment : Aligned on interleaves
Interleave, duration : 40 ms (1.00 video frame)
Interleave, preload duration : 504 ms
Title : English

Серия 07. Поезд-беглец / Runaway Train:

Описание: Более ста пассажиров погибли, когда электричка сошла с рельсов и врезалась в жилой дом в японском городе Амагасаки.
Продолжительность: 00:44:57
Видеокодек: Xvid
Битрейт видео: ~1770 kbps
Размер кадра: 704x400
Качество видео: SATRip
Аудиокодек: MP3
Битрейт аудио: 192 Кбит/с
       

MediaInfo

General
Complete name : D:\Фильмы и сериалы\Секунды до катастрофы (6 сезон) (2012)\6x07 Поезд-беглец (Runaway Train).avi
Format : AVI
Format/Info : Audio Video Interleave
File size : 694 MiB
Duration : 44mn 57s
Overall bit rate : 2 159 Kbps
Writing application : VirtualDubMod 1.5.10.3 | www.virtualdub-fr.org || (build 2550/release)
Writing library : VirtualDubMod build 2550/release
Video
ID : 0
Format : MPEG-4 Visual
Format profile : Advanced [email protected]
Format settings, BVOP : 2
Format settings, QPel : No
Format settings, GMC : No warppoints
Format settings, Matrix : Default (H.263)
Codec ID : XVID
Codec ID/Hint : XviD
Duration : 44mn 57s
Bit rate : 1 760 Kbps
Width : 704 pixels
Height : 400 pixels
Display aspect ratio : 16:9
Frame rate : 25.000 fps
Color space : YUV
Chroma subsampling : 4:2:0
Bit depth : 8 bits
Scan type : Progressive
Compression mode : Lossy
Bits/(Pixel*Frame) : 0.250
Stream size : 566 MiB (82%)
Writing library : XviD 1.2.1 (UTC 2008-12-04)
Audio #1
ID : 1
Format : MPEG Audio
Format version : Version 1
Format profile : Layer 3
Codec ID : 55
Codec ID/Hint : MP3
Duration : 44mn 57s
Bit rate mode : Constant
Bit rate : 192 Kbps
Channel(s) : 2 channels
Sampling rate : 48.0 KHz
Compression mode : Lossy
Stream size : 61.7 MiB (9%)
Alignment : Aligned on interleaves
Interleave, duration : 40 ms (1.00 video frame)
Interleave, preload duration : 504 ms
Title : Russian
Writing library : LAME3.99
Encoding settings : -m s -V 4 -q 2 -lowpass 18.6 -b 192
Audio #2
ID : 2
Format : MPEG Audio
Format version : Version 1
Format profile : Layer 3
Mode : Joint stereo
Mode extension : MS Stereo
Codec ID : 55
Codec ID/Hint : MP3
Duration : 44mn 57s
Bit rate mode : Constant
Bit rate : 192 Kbps
Channel(s) : 2 channels
Sampling rate : 48.0 KHz
Compression mode : Lossy
Stream size : 61.7 MiB (9%)
Alignment : Aligned on interleaves
Interleave, duration : 40 ms (1.00 video frame)
Interleave, preload duration : 504 ms
Title : English

Серия 08. Нагасаки: забытая бомба / Nagasaki - The Forgotten Bomb:

Описание: Мы рассмотрим спорные утверждения о том, что сброс атомной бомбы на Нагасаки был необходим для скорейшего завершения Второй мировой войны
Продолжительность: 00:44:59
Видеокодек: Xvid
Битрейт видео: ~1770 kbps
Размер кадра: 704x400
Качество видео: SATRip
Аудиокодек: MP3
Битрейт аудио: 192 Кбит/с
       

MediaInfo

General
Complete name : D:\Фильмы и сериалы\Секунды до катастрофы (6 сезон) (2012)\6x08 Нагасаки - забытая бомба (Nagasaki - The Forgotten Bomb).avi
Format : AVI
Format/Info : Audio Video Interleave
File size : 631 MiB
Duration : 44mn 58s
Overall bit rate : 1 960 Kbps
Writing application : VirtualDubMod 1.5.10.3 | www.virtualdub-fr.org || (build 2550/release)
Writing library : VirtualDubMod build 2550/release
Video
ID : 0
Format : MPEG-4 Visual
Format profile : Advanced [email protected]
Format settings, BVOP : 2
Format settings, QPel : No
Format settings, GMC : No warppoints
Format settings, Matrix : Default (H.263)
Codec ID : XVID
Codec ID/Hint : XviD
Duration : 44mn 58s
Bit rate : 1 562 Kbps
Width : 704 pixels
Height : 400 pixels
Display aspect ratio : 16:9
Frame rate : 25.000 fps
Color space : YUV
Chroma subsampling : 4:2:0
Bit depth : 8 bits
Scan type : Progressive
Compression mode : Lossy
Bits/(Pixel*Frame) : 0.222
Stream size : 502 MiB (80%)
Writing library : XviD 1.2.1 (UTC 2008-12-04)
Audio #1
ID : 1
Format : MPEG Audio
Format version : Version 1
Format profile : Layer 3
Codec ID : 55
Codec ID/Hint : MP3
Duration : 44mn 58s
Bit rate mode : Constant
Bit rate : 192 Kbps
Channel(s) : 2 channels
Sampling rate : 48.0 KHz
Compression mode : Lossy
Stream size : 61.8 MiB (10%)
Alignment : Aligned on interleaves
Interleave, duration : 40 ms (1.00 video frame)
Interleave, preload duration : 504 ms
Title : Russian
Writing library : LAME3.99
Encoding settings : -m s -V 4 -q 2 -lowpass 18.6 -b 192
Audio #2
ID : 2
Format : MPEG Audio
Format version : Version 1
Format profile : Layer 3
Codec ID : 55
Codec ID/Hint : MP3
Duration : 44mn 58s
Bit rate mode : Constant
Bit rate : 192 Kbps
Channel(s) : 2 channels
Sampling rate : 48.0 KHz
Compression mode : Lossy
Stream size : 61.8 MiB (10%)
Alignment : Aligned on interleaves
Interleave, duration : 40 ms (1.00 video frame)
Interleave, preload duration : 504 ms
Title : English
Writing library : LAME3.99
Encoding settings : -m s -V 4 -q 2 -lowpass 18.6 -b 192

Внимание! Раздача ведётся путём добавления новых серий. Описание обновления торрента

Внимание! Раздача ведётся путём добавления новых серий; при каждом добавлении создётся новый торрент. Чтобы начать докачку новой серии, пользователям необходимо сделать следующее:
(1) остановить скачивание,
(2) удалить старый торрент у себя из клиента (старые серии удалять не надо),
(3) скачать новый торрент и запустить его у себя в клиенте вместо старого, при этом указать клиенту путь в старую папку куда и должно происходить скачивание новых серий.
Ваш клиент при этом должен произвести хеширование (проверку) старой папки (если не производит сам - помогите ему сделать это), и будет докачивать только те серии которых у вас ещё нет. Старые серии при этом не удаляются, а продолжают раздаваться!
Eсли вы уже удалили старые серии, то предотвратить повторную закачку старых серий можно, отжав галочку в соответсвующих местах при запуске нового торрента. По возможности, желательно не удалять старые серии как можно дольше чтобы релизёр не столько продолжал раздавать старые серии, а смог сконцентрироваться на новых.
Скриншоты:
         
Other forum [Profile] [PM]
Display posts from previous:    
Reply to topic

The time now is: Today 21:48

All times are GMT + 3 Hours



You cannot post new topics in this forum
You cannot reply to topics in this forum
You cannot edit your posts in this forum
You cannot delete your posts in this forum
You cannot vote in polls in this forum
You cannot attach files in this forum
You cannot download files in this forum