Today is a free download without charge Download

Ситуация под контролем. Платформа Тролль-А, Норвегия / Countdown to collision. Platform Troll A, Norway (2012) WEBRip

Reply to topic
 
Author
Message

Omen ®

Longevity: 7 years 10 months

Posts: 181087

Торрент-статистика

Post 09-Jan-2013 23:12

[Quote]

-Ситуация под контролем. Платформа Тролль-А, Норвегия / Countdown to collision. Platform Troll A, Norway (2012) WEB-Rip- Русское название: Ситуация под контролем. Платформа Тролль-А, Норвегия
Оригинальное название: Countdown to collision. Platform Troll A, Norway
Режиссер / Телекомпания: Discovery Channel
Год выпуска: 2012
Жанр: Документальный
Описание:
Тролль-А - одна из крупнейших в мире газовых платформ, гигант Северного моря. Внутри этой конструкции сокрыто множество инновационных разработок, предотвращающих катастрофы.
В этом выпуске семь изобретений помогут рабочим выполнить семь сложнейших задач, что бы удвоить поставки газа в европейские города.
Утечка нефти или газа может обернуться пожаром. Если ситуация выйдет из под контроля - последствия будут ужасными. Малейшая ошибка - и контроль потерян...
Продолжительность: 00:44:07
Перевод: Одноголосый закадровый, профессиональный
Видеокодек: DivX 5
Битрейт видео: ~1401 Кбит/сек
Размер кадра: 720x408
Качество видео: WEB-Rip
Аудиокодек: MP3, Joint stereo
Битрейт аудио: 128 Кбит/сек Скриншоты:        

MediaInfo:

Общее
Полное имя : Ситуация под контролем - Платформа Тролль-А, Норвегия.avi
Формат : AVI
Формат/Информация : Audio Video Interleave
Размер файла : 487 Мбайт
Продолжительность : 44 м.
Общий поток : 1542 Кбит/сек
Программа кодирования : Lavf51.12.1
Видео
Идентификатор : 0
Формат : MPEG-4 Visual
Профиль формата : [email protected]
Параметр BVOP формата : Нет
Параметр QPel формата : Нет
Параметр GMC формата : Без точки перехода
Параметр матрицы формата : Default (H.263)
Идентификатор кодека : DX50
Идентификатор кодека/Подсказка : DivX 5
Продолжительность : 44 м.
Битрейт : 1401 Кбит/сек
Ширина : 720 пикселей
Высота : 408 пикселей
Соотношение сторон : 16:9
Частота кадров : 29,970 кадров/сек
Цветовое пространство : YUV
Субдискретизация насыщенности : 4:2:0
Битовая глубина : 8 бит
Тип развёртки : Прогрессивная
Метод сжатия : С потерями
Бит/(Пиксели*Кадры) : 0.159
Размер потока : 442 Мбайт (91%)
Библиотека кодирования : Lavc51.40.4
Аудио
Идентификатор : 1
Формат : MPEG Audio
Версия формата : Version 1
Профиль формата : Layer 3
Режим : Joint stereo
Расширение режима : MS Stereo
Идентификатор кодека : 55
Идентификатор кодека/Подсказка : MP3
Продолжительность : 44 м.
Вид битрейта : Постоянный
Битрейт : 128 Кбит/сек
Каналы : 2 канала
Частота : 44,1 КГц
Метод сжатия : С потерями
Размер потока : 40,4 Мбайт (8%)
Выравнивание : Соединение по промежуткам
Продолжительность промежутка : 26 мс. (0,78 видеокадр)
Библиотека кодирования : LAME3.97
Время раздачи: с 9:00 до 21:00
Other forum [Profile] [PM]
Display posts from previous:    
Reply to topic

The time now is: Today 01:13

All times are GMT + 3 Hours



You cannot post new topics in this forum
You cannot reply to topics in this forum
You cannot edit your posts in this forum
You cannot delete your posts in this forum
You cannot vote in polls in this forum
You cannot attach files in this forum
You cannot download files in this forum