Today is a free download without charge Download

Discovery: В поисках суперлюдей (серии 1-5 из ?) / Discovery: Superhuman showdown (2012) SATRip [обновляемая]

Reply to topic
 
Author
Message

Omen ®

Longevity: 7 years 10 months

Posts: 181087

Торрент-статистика

Post 09-Jan-2013 23:12

[Quote]

-Discovery: В поисках сюперлюдей. (1-5 серию из ?)/ Discovery: Superhuman showdown (2012) SATRip[обновляемая]- Русское название: Discovery: В поисках сюперлюдей.
Оригинальное название: Discovery: Superhuman showdown
Год выпуска: 2012
Жанр: Документальный
Описание:
Порой мы даже не догадываемся о том, сколько в мире настоящих супергероев. Пусть они и не спасают человечество, но, тем не менее, их способности вызывают неподдельное восхищение. Люди с невероятной памятью, самые быстрые, самые сильные, самые необычные – все это герои новой программы «В поисках суперлюдей» на Discovery Channel. Вместе с командой Discovery Channel поиском выдающихся людей занимаются три ведущих мировых эксперта – хирург и специалисты по нейронауке и спортивной науке. В распоряжении ученых находится прекрасно оборудованная лаборатория, где им предоставлена возможность изучить каждого суперчеловека и найти разумное объяснение его фантастическим способностям. Телезрителям будут представлены лучшие из лучших в одной из пяти категорий: Сила, Скорость, Умения, Выносливость и Возможности мозга. Ради победы в своей категории герои программы будут соревноваться друг с другом на пределе своих возможностей, демонстрируя свой необыкновенный талант.
Продолжительность: 00:43:50
Перевод: Двухголосый закадровый, профессиональный
Видеокодек: DivX 5
Битрейт видео: ~2100 Кбит/сек
Размер кадра: 740x420
Качество видео: SATRip
Аудиокодек: MP3
Битрейт аудио: 128 Кбит/сек

Список серий и информация по каждой из них

1 серия Выносливость

Видеокодек: DivX 5
Битрейт видео: 2032 Кбит/сек
Размер кадра: 740x420
Качество видео: WEB-Rip
Аудиокодек: MP3
Битрейт аудио: 128 Кбит/сек
По всему миру разбросаны люди с невероятными способностями. На сей раз команда ищет человека со сверхвыносливостью. Среди них:
- Удивительный шпагоглотатель, который справляется и с перфоратором;
- Человек, способный выдержать перегрузку в 4 раза больше, чем при запуске космического корабля;
- Человек-электропроводник, способный пережить смертельный разряд;
- Неистребимый человек, способный выдержать большую тяжесть, чем грузовик;
- Экстремальный пловец, способный выдержать температуру воды, которая может убить.

MediaInfo

Общее
Полное имя : H:\ДОКУМЕНТАЛКИ\В поисках супер людей\1 серия-В поисках сюперлюдей. Выносливость.avi
Формат : AVI
Формат/Информация : Audio Video Interleave
Размер файла : 681 Мбайт
Продолжительность : 43 м.
Общий поток : 2173 Кбит/сек
Программа кодирования : Lavf51.12.1
Видео
Идентификатор : 0
Формат : MPEG-4 Visual
Профиль формата : [email protected]
Параметр BVOP формата : Нет
Параметр QPel формата : Нет
Параметр GMC формата : Без точки перехода
Параметр матрицы формата : Default (H.263)
Идентификатор кодека : DX50
Идентификатор кодека/Подсказка : DivX 5
Продолжительность : 43 м.
Битрейт : 2032 Кбит/сек
Ширина : 740 пикселей
Высота : 420 пикселей
Соотношение сторон : 16:9
Частота кадров : 30,000 кадров/сек
Цветовое пространство : YUV
Субдискретизация насыщенности : 4:2:0
Битовая глубина : 8 бит
Тип развёртки : Прогрессивная
Метод сжатия : С потерями
Бит/(Пиксели*Кадры) : 0.218
Размер потока : 637 Мбайт (94%)
Библиотека кодирования : Lavc51.40.4
Аудио
Идентификатор : 1
Формат : MPEG Audio
Версия формата : Version 1
Профиль формата : Layer 3
Режим : Joint stereo
Расширение режима : MS Stereo
Идентификатор кодека : 55
Идентификатор кодека/Подсказка : MP3
Продолжительность : 43 м.
Вид битрейта : Постоянный
Битрейт : 128 Кбит/сек
Каналы : 2 канала
Частота : 44,1 КГц
Метод сжатия : С потерями
Размер потока : 40,1 Мбайт (6%)
Выравнивание : Соединение по промежуткам
Продолжительность промежутка : 26 мс. (0,78 видеокадр)
       

2 серия Сила

Видеокодек: DivX 5
Битрейт видео: 1771 Кбит/сек
Размер кадра: 740x420
Качество видео: WEB-Rip
Аудиокодек: MP3
Битрейт аудио: 128 Кбит/сек
Во всех уголках мира живут люди с выдающимися способностями. На этот раз выпуск посвящен поиску суперлюдей в категории "мастерство":
- Ныряльщик, который установил мировой рекорд, задержав дыхание на 20 минут, но ему и этого мало;
- Гимнастка, позвоночник которой опровергает все законы физиологии;
- Метатель ножей, чья точность поражает воображение;
- Любитель паркура, чьи трюки грозят обернуться серьезной травмой;
- Альпинист-рекордсмен, бросающий вызов смерти.
       

MediaInfo

Общее
Полное имя : H:\ДОКУМЕНТАЛКИ\В поисках супер людей\2 серия-В поисках сюперлюдей. Сила.avi
Формат : AVI
Формат/Информация : Audio Video Interleave
Размер файла : 598 Мбайт
Продолжительность : 43 м.
Общий поток : 1912 Кбит/сек
Программа кодирования : Lavf51.12.1
Видео
Идентификатор : 0
Формат : MPEG-4 Visual
Профиль формата : [email protected]
Параметр BVOP формата : Нет
Параметр QPel формата : Нет
Параметр GMC формата : Без точки перехода
Параметр матрицы формата : Default (H.263)
Идентификатор кодека : DX50
Идентификатор кодека/Подсказка : DivX 5
Продолжительность : 43 м.
Битрейт : 1771 Кбит/сек
Ширина : 740 пикселей
Высота : 420 пикселей
Соотношение сторон : 16:9
Частота кадров : 30,000 кадров/сек
Цветовое пространство : YUV
Субдискретизация насыщенности : 4:2:0
Битовая глубина : 8 бит
Тип развёртки : Прогрессивная
Метод сжатия : С потерями
Бит/(Пиксели*Кадры) : 0.190
Размер потока : 554 Мбайт (93%)
Библиотека кодирования : Lavc51.40.4
Аудио
Идентификатор : 1
Формат : MPEG Audio
Версия формата : Version 1
Профиль формата : Layer 3
Режим : Joint stereo
Расширение режима : MS Stereo
Идентификатор кодека : 55
Идентификатор кодека/Подсказка : MP3
Продолжительность : 43 м.
Вид битрейта : Постоянный
Битрейт : 128 Кбит/сек
Каналы : 2 канала
Частота : 44,1 КГц
Метод сжатия : С потерями
Размер потока : 40,0 Мбайт (7%)
Выравнивание : Соединение по промежуткам
Продолжительность промежутка : 26 мс. (0,78 видеокадр)

3 серия Умение

Видеокодек: DivX 5
Битрейт видео: 2011 Кбит/сек
Размер кадра: 740x420
Качество видео: WEB-Rip
Аудиокодек: MP3
Битрейт аудио: 128 Кбит/сек
Во всех уголках мира живут люди выдающихся способностей. Сегодня мы ищем суперлюдей в категории "сила":
- Легенда Африки - торс этого человека выдерживает грузовик!
- Певец, чей голос громче реактивного самолета.
- Мастер единоборств, чьи голени крепче бейсбольной биты.
- Сильный как бык мировой рекордсмен.
- Человек-насос, разрывающий грелку своими легкими за 20 секунд.
       

MediaInfo

Общее
Полное имя : H:\ДОКУМЕНТАЛКИ\В поисках супер людей\3 серия-В поисках сюперлюдей. Умение.avi
Формат : AVI
Формат/Информация : Audio Video Interleave
Размер файла : 677 Мбайт
Продолжительность : 43 м.
Общий поток : 2152 Кбит/сек
Программа кодирования : Lavf51.12.1
Видео
Идентификатор : 0
Формат : MPEG-4 Visual
Профиль формата : [email protected]
Параметр BVOP формата : Нет
Параметр QPel формата : Нет
Параметр GMC формата : Без точки перехода
Параметр матрицы формата : Default (H.263)
Идентификатор кодека : DX50
Идентификатор кодека/Подсказка : DivX 5
Продолжительность : 43 м.
Битрейт : 2011 Кбит/сек
Ширина : 740 пикселей
Высота : 420 пикселей
Соотношение сторон : 16:9
Частота кадров : 30,000 кадров/сек
Цветовое пространство : YUV
Субдискретизация насыщенности : 4:2:0
Битовая глубина : 8 бит
Тип развёртки : Прогрессивная
Метод сжатия : С потерями
Бит/(Пиксели*Кадры) : 0.216
Размер потока : 632 Мбайт (93%)
Библиотека кодирования : Lavc51.40.4
Аудио
Идентификатор : 1
Формат : MPEG Audio
Версия формата : Version 1
Профиль формата : Layer 3
Режим : Joint stereo
Расширение режима : MS Stereo
Идентификатор кодека : 55
Идентификатор кодека/Подсказка : MP3
Продолжительность : 43 м.
Вид битрейта : Постоянный
Битрейт : 128 Кбит/сек
Каналы : 2 канала
Частота : 44,1 КГц
Метод сжатия : С потерями
Размер потока : 40,2 Мбайт (6%)
Выравнивание : Соединение по промежуткам
Продолжительность промежутка : 26 мс. (0,78 видеокадр)

4 серия Скорость

Видеокодек: DivX 5
Битрейт видео: 1786 Кбит/сек
Размер кадра: 740x420
Качество видео: WEB-Rip
Аудиокодек: MP3
Битрейт аудио: 128 Кбит/сек
Во всех уголках мира живут люди выдающихся способностей. Сегодня мы ищем суперлюдей в категории «Скорость»:
которые имеют необычные способности. В этом выпуске пойдет речь о людях в категории «Скорость»:
- Бейсджампер мирового класса – самый быстрый человек в небе без мотора.
- Рекордсмен по вращению на голове, который крутится со скоростью более 100 оборотов в минуту.
- Чемпион по скоростному поеданию еды, который по своему понимает выражение «fast food»
- Скрипач-рекордсмен с самыми быстрыми пальцами на планете.
- Самый быстрый стрелок в мире, способный выпустить 8 пуль меньше, чем за секунду.
       

MediaInfo

Общее
Полное имя : H:\ДОКУМЕНТАЛКИ\В поисках супер людей\4 серия-В поисках суперлюдей. Скорость.avi
Формат : AVI
Формат/Информация : Audio Video Interleave
Размер файла : 606 Мбайт
Продолжительность : 43 м.
Общий поток : 1927 Кбит/сек
Программа кодирования : Lavf51.12.1
Видео
Идентификатор : 0
Формат : MPEG-4 Visual
Профиль формата : [email protected]
Параметр BVOP формата : Нет
Параметр QPel формата : Нет
Параметр GMC формата : Без точки перехода
Параметр матрицы формата : Default (H.263)
Идентификатор кодека : DX50
Идентификатор кодека/Подсказка : DivX 5
Продолжительность : 43 м.
Битрейт : 1786 Кбит/сек
Ширина : 740 пикселей
Высота : 420 пикселей
Соотношение сторон : 16:9
Частота кадров : 30,000 кадров/сек
Цветовое пространство : YUV
Субдискретизация насыщенности : 4:2:0
Битовая глубина : 8 бит
Тип развёртки : Прогрессивная
Метод сжатия : С потерями
Бит/(Пиксели*Кадры) : 0.192
Размер потока : 562 Мбайт (93%)
Библиотека кодирования : Lavc51.40.4
Аудио
Идентификатор : 1
Формат : MPEG Audio
Версия формата : Version 1
Профиль формата : Layer 3
Режим : Joint stereo
Расширение режима : MS Stereo
Идентификатор кодека : 55
Идентификатор кодека/Подсказка : MP3
Продолжительность : 43 м.
Вид битрейта : Постоянный
Битрейт : 128 Кбит/сек
Каналы : 2 канала
Частота : 44,1 КГц
Метод сжатия : С потерями
Размер потока : 40,2 Мбайт (7%)
Выравнивание : Соединение по промежуткам
Продолжительность промежутка : 26 мс. (0,78 видеокадр)

5 серия Сила мысли

Видеокодек: DivX 5
Битрейт видео: 1889 Кбит/сек
Размер кадра: 720x408
Качество видео: WEB-Rip
Аудиокодек: MP3
Битрейт аудио: 128 Кбит/сек
Во разных концах света живут люди с невероятными талантами. В этот раз мы будем искать человека с удивительными интеллектуальными способностями:
- Мужчина с поразительной памятью, способный запоминать десятки цифр, которые видел всего мгновение.
- Чемпион по собиранию кубика Рубика, разум которого создает невероятные стратегии.
- Шаолиньский воин, чьи способности подавлять боль силой разума безграничны.
- Гений математик, известный как человек-калькулятор.
- Женщина, чей мозг позволяет произносить до шестисот слов в минуту.
       

MediaInfo

Общее
Полное имя : H:\ДОКУМЕНТАЛКИ\В поисках супер людей\5 серия-В поисках суперлюдей. Сила мысли.avi
Формат : AVI
Формат/Информация : Audio Video Interleave
Размер файла : 641 Мбайт
Продолжительность : 44 м.
Общий поток : 2031 Кбит/сек
Программа кодирования : Lavf51.12.1
Видео
Идентификатор : 0
Формат : MPEG-4 Visual
Профиль формата : [email protected]
Параметр BVOP формата : Нет
Параметр QPel формата : Нет
Параметр GMC формата : Без точки перехода
Параметр матрицы формата : Default (H.263)
Идентификатор кодека : DX50
Идентификатор кодека/Подсказка : DivX 5
Продолжительность : 44 м.
Битрейт : 1889 Кбит/сек
Ширина : 720 пикселей
Высота : 408 пикселей
Соотношение сторон : 16:9
Частота кадров : 30,000 кадров/сек
Цветовое пространство : YUV
Субдискретизация насыщенности : 4:2:0
Битовая глубина : 8 бит
Тип развёртки : Прогрессивная
Метод сжатия : С потерями
Бит/(Пиксели*Кадры) : 0.214
Размер потока : 596 Мбайт (93%)
Библиотека кодирования : Lavc51.40.4
Аудио
Идентификатор : 1
Формат : MPEG Audio
Версия формата : Version 1
Профиль формата : Layer 3
Режим : Joint stereo
Расширение режима : MS Stereo
Идентификатор кодека : 55
Идентификатор кодека/Подсказка : MP3
Продолжительность : 44 м.
Вид битрейта : Постоянный
Битрейт : 128 Кбит/сек
Каналы : 2 канала
Частота : 44,1 КГц
Метод сжатия : С потерями
Размер потока : 40,4 Мбайт (6%)
Выравнивание : Соединение по промежуткам
Продолжительность промежутка : 26 мс. (0,78 видеокадр)
Библиотека кодирования : LAME3.97

Внимание! Раздача ведётся путём добавления новых серий. Описание обновления торрента

Внимание! Раздача ведётся путём добавления новых серий; при каждом добавлении создётся новый торрент. Чтобы начать докачку новой серии, пользователям необходимо сделать следующее:
(1) остановить скачивание,
(2) удалить старый торрент у себя из клиента (старые серии удалять не надо),
(3) скачать новый торрент и запустить его у себя в клиенте вместо старого, при этом указать клиенту путь в старую папку куда и должно происходить скачивание новых серий.
Ваш клиент при этом должен произвести хеширование (проверку) старой папки (если не производит сам - помогите ему сделать это), и будет докачивать только те серии которых у вас ещё нет. Старые серии при этом не удаляются, а продолжают раздаваться!
Eсли вы уже удалили старые серии, то предотвратить повторную закачку старых серий можно, отжав галочку в соответсвующих местах при запуске нового торрента. По возможности, желательно не удалять старые серии как можно дольше чтобы релизёр не столько продолжал раздавать старые серии, а смог сконцентрироваться на новых.
Скриншоты:        Время раздачи: с 09:00 до 21:30
Other forum [Profile] [PM]
Display posts from previous:    
Reply to topic

The time now is: Today 02:58

All times are GMT + 3 Hours



You cannot post new topics in this forum
You cannot reply to topics in this forum
You cannot edit your posts in this forum
You cannot delete your posts in this forum
You cannot vote in polls in this forum
You cannot attach files in this forum
You cannot download files in this forum