Today is a free download without charge Download

Discovery: Оружие, которое изменило мир. РПГ / Weapons That Changed The World. RPG (2012) WEB-Rip [выпуск 6]

Reply to topic
 
Author
Message

Omen ®

Longevity: 7 years 10 months

Posts: 181087

Торрент-статистика

Post 09-Jan-2013 23:12

[Quote]

-Discovery: Оружие, которое изменило мир. РПГ / Weapons That Changed The World. RPG (2012) WEB-Rip [выпуск 6] - Русское название: Discovery: Оружие, которое изменило мир. РПГ
Оригинальное название: Weapons That Changed The World. RPG
Режиссер / Телекомпания: Discovery Channel
Год выпуска: 2012
Жанр: Документальный
Описание:
Как человек может подорвать танк или разнести вражеские постройки в щепки? Конечно же с помощью знаменитого ручного противотанкового оружия - РПГ.
Этот гранатомет времен холодной войны до сих мор является передовым вооружение на полях сражений. Как же ему удается так долго соперничать с современным оружием? В этом выпуске мы подвергнем испытанию этот гранатомет.
Продолжительность: 00:44:01
Перевод: Одноголосый закадровый, профессиональный
Видеокодек: DivX 5
Битрейт видео: ~1501 Кбит/сек
Размер кадра: 636x360
Качество видео: WEB-Rip
Аудиокодек: MP3
Битрейт аудио: 128 Кбит/сек Скриншоты:
       
       

MediaInfo

Общее
Полное имя : H:\ДОКУМЕНТАЛКИ\Оружие, которое изменило мир - РПГ.avi
Формат : AVI
Формат/Информация : Audio Video Interleave
Размер файла : 517 Мбайт
Продолжительность : 44 м.
Общий поток : 1641 Кбит/сек
Программа кодирования : Lavf51.12.1
Видео
Идентификатор : 0
Формат : MPEG-4 Visual
Профиль формата : [email protected]
Параметр BVOP формата : Нет
Параметр QPel формата : Нет
Параметр GMC формата : Без точки перехода
Параметр матрицы формата : Default (H.263)
Идентификатор кодека : DX50
Идентификатор кодека/Подсказка : DivX 5
Продолжительность : 44 м.
Битрейт : 1501 Кбит/сек
Ширина : 636 пикселей
Высота : 360 пикселей
Соотношение сторон : 16:9
Частота кадров : 25,000 кадров/сек
Цветовое пространство : YUV
Субдискретизация насыщенности : 4:2:0
Битовая глубина : 8 бит
Тип развёртки : Прогрессивная
Метод сжатия : С потерями
Бит/(Пиксели*Кадры) : 0.262
Размер потока : 472 Мбайт (91%)
Библиотека кодирования : Lavc51.40.4
Аудио
Идентификатор : 1
Формат : MPEG Audio
Версия формата : Version 1
Профиль формата : Layer 3
Режим : Joint stereo
Расширение режима : MS Stereo
Идентификатор кодека : 55
Идентификатор кодека/Подсказка : MP3
Продолжительность : 44 м.
Вид битрейта : Постоянный
Битрейт : 128 Кбит/сек
Каналы : 2 канала
Частота : 44,1 КГц
Метод сжатия : С потерями
Размер потока : 40,3 Мбайт (8%)
Выравнивание : Соединение по промежуткам
Продолжительность промежутка : 26 мс. (0,65 видеокадр)
Библиотека кодирования : LAME3.97
Время раздачи: с 9:00 до 21:00
Other forum [Profile] [PM]
Display posts from previous:    
Reply to topic

The time now is: Today 14:47

All times are GMT + 3 Hours



You cannot post new topics in this forum
You cannot reply to topics in this forum
You cannot edit your posts in this forum
You cannot delete your posts in this forum
You cannot vote in polls in this forum
You cannot attach files in this forum
You cannot download files in this forum