Today is a free download without charge Download

Первая неделя за решеткой: Первая ходка / First Week In: Fresh Meat (2012) SATRip

Reply to topic
 
Author
Message

Omen ®

Longevity: 7 years 10 months

Posts: 181087

Торрент-статистика

Post 09-Jan-2013 23:12

[Quote]

- Первая неделя за решеткой: Первая ходка / First Week In: Fresh Meat (2012) SATRip - Режиссер / Телекомпания: Discovery
Русское название: Первая неделя за решеткой: Первая ходка
Оригинальное название: First Week In: Fresh Meat
Год выпуска: 2012
Жанр: Документальный, исследование, криминал
Описание:
Первая неделя за решеткой: Первая ходка (First Week In: Fresh Meat) Три человека впервые попадают за решетку за похищение, грабеж, сутенерство и сводничество и должны провести самую страшную неделю в своей жизни.
Перевод: Профессиональный одноголосый
Продолжительность: ~ 00:43:46
Видеокодек: XVID
Битрейт видео: ~1499 kb/s
Размер кадра: 704 x 400
Качество видео: SATRip
Аудиокодек: MP3, 2ch.
Битрейт аудио: 128 kb/s

MediaInfo

Формат : AVI
Формат/Информация : Audio Video Interleave
Размер файла : 512 Мбайт
Продолжительность : 43 м.
Общий поток : 1636 Кбит/сек
Библиотека кодирования : VirtualDub build 32842/release
Видео
Идентификатор : 0
Формат : MPEG-4 Visual
Профиль формата : Advanced [email protected]
Параметр BVOP формата : 2
Параметр QPel формата : Нет
Параметр GMC формата : Без точки перехода
Параметр матрицы формата : Default (H.263)
Режим смешивания : Сжатый битовый поток
Идентификатор кодека : XVID
Идентификатор кодека/Подсказка : XviD
Продолжительность : 43 м.
Битрейт : 1499 Кбит/сек
Ширина : 704 пикселя
Высота : 400 пикселей
Соотношение сторон : 16:9
Частота кадров : 25,000 кадров/сек
Цветовое пространство : YUV
Субдискретизация насыщенности : 4:2:0
Битовая глубина : 8 бит
Тип развёртки : Прогрессивная
Метод сжатия : С потерями
Бит/(Пиксели*Кадры) : 0.213
Размер потока : 469 Мбайт (92%)
Библиотека кодирования : XviD 64
Аудио
Идентификатор : 1
Формат : MPEG Audio
Версия формата : Version 1
Профиль формата : Layer 3
Режим : Joint stereo
Расширение режима : MS Stereo
Идентификатор кодека : 55
Идентификатор кодека/Подсказка : MP3
Продолжительность : 43 м.
Вид битрейта : Постоянный
Битрейт : 128 Кбит/сек
Каналы : 2 канала
Частота : 48,0 КГц
Метод сжатия : С потерями
Размер потока : 40,1 Мбайт (8%)
Выравнивание : Разделение по промежуткам
Продолжительность промежутка : 40 мс. (1,00 видеокадр)
Время предзагрузки промежутка : 500 мс.
Скриншоты:          
Other forum [Profile] [PM]
Similar theme
Forum Topic Author Torrent Replies Last Post
./templates/default/images/folder_dl.gif FPS (1st Person) Крутой Сэм HD: Первая Кровь / Serious Sam HD: The First Encounter [v1.206580] (2009) [Rus/Eng/ML] Repack by Other's Theseus
1 | 0

1 | 2144

1

2019-01-23 12:38
Theseus Latest
Display posts from previous:    
Reply to topic

The time now is: Today 17:56

All times are GMT + 3 Hours



You cannot post new topics in this forum
You cannot reply to topics in this forum
You cannot edit your posts in this forum
You cannot delete your posts in this forum
You cannot vote in polls in this forum
You cannot attach files in this forum
You cannot download files in this forum