Today is a free download without charge Download

Федеральная полиция Австралии / Australia\'s Toughest Police. Серии 1-2 (2011) SATRip

Reply to topic
 
Author
Message

Omen ®

Longevity: 7 years 10 months

Posts: 181087

Торрент-статистика

Post 09-Jan-2013 22:40

[Quote]

- Федеральная полиция Австралии / Australia's Toughest Police. Серии 1-2 (2011) SATRip - Режиссер / Телекомпания: Discovery
Русское название: Федеральная полиция Австралии
Оригинальное название: Australia's Toughest Police
Год выпуска: 2011
Жанр: Телепередача
Описание:
Посмотрите на работу сотрудников национальной и международной полиции Австралии
Режиссёр: Andrew Denton и Anita Jacoby
Перевод: Профессиональный закадровый одноголосый
Продолжительность: ~ 00:41:46
Видеокодек: XVID
Битрейт видео: ~1498 kb/s
Размер кадра: 704 x 400
Качество видео: SATRip
Аудиокодек: MP3, 2ch.
Битрейт аудио: 128 kb/s

MediaInfo

Формат : AVI
Формат/Информация : Audio Video Interleave
Размер файла : 489 Мбайт
Продолжительность : 41 м.
Общий поток : 1636 Кбит/сек
Библиотека кодирования : VirtualDub build 32842/release
Видео
Идентификатор : 0
Формат : MPEG-4 Visual
Профиль формата : Advanced [email protected]
Параметр BVOP формата : 2
Параметр QPel формата : Нет
Параметр GMC формата : Без точки перехода
Параметр матрицы формата : Default (H.263)
Режим смешивания : Сжатый битовый поток
Идентификатор кодека : XVID
Идентификатор кодека/Подсказка : XviD
Продолжительность : 41 м.
Битрейт : 1498 Кбит/сек
Ширина : 704 пикселя
Высота : 400 пикселей
Соотношение сторон : 16:9
Частота кадров : 25,000 кадров/сек
Цветовое пространство : YUV
Субдискретизация насыщенности : 4:2:0
Битовая глубина : 8 бит
Тип развёртки : Прогрессивная
Метод сжатия : С потерями
Бит/(Пиксели*Кадры) : 0.213
Размер потока : 448 Мбайт (92%)
Библиотека кодирования : XviD 64
Аудио
Идентификатор : 1
Формат : MPEG Audio
Версия формата : Version 1
Профиль формата : Layer 3
Режим : Joint stereo
Расширение режима : MS Stereo
Идентификатор кодека : 55
Идентификатор кодека/Подсказка : MP3
Продолжительность : 41 м.
Вид битрейта : Постоянный
Битрейт : 128 Кбит/сек
Каналы : 2 канала
Частота : 48,0 КГц
Метод сжатия : С потерями
Размер потока : 38,3 Мбайт (8%)
Выравнивание : Разделение по промежуткам
Продолжительность промежутка : 40 мс. (1,00 видеокадр)
Время предзагрузки промежутка : 500 мс.
Скриншоты:                    [
Other forum [Profile] [PM]
Similar theme
Forum Topic Author Torrent Replies Last Post
./templates/default/images/folder_sticky.gif Архив Консультант Плюс Консультант Плюс. Федеральные базы на 01.01.2019 Anonymous
0 | 1

2 | 3920

170

2019-06-30 22:33
Dracula Latest
./templates/default/images/folder_dl.gif Архив Консультант Плюс Консультант Плюс. Пополнения для федеральных баз с 11.02 по 15.02.2019 Dragonprochee
1 | 0

0 | 1786

107

2019-02-18 18:16
Dragonprochee Latest
./templates/default/images/folder_dl.gif Архив Консультант Плюс Консультант Плюс. Пополнения для федеральных баз с 08.07 по 12.07.2019 Dragonprochee
1 | 0

0 | 1444

0

2019-07-14 20:21
Dragonprochee Latest
./templates/default/images/folder_dl.gif Архив Консультант Плюс Консультант Плюс. Пополнения для федеральных баз с 15.07 по 19.07.2019 Varius
1 | 0

0 | 1299

0

2019-07-22 22:00
Varius Latest
./templates/default/images/folder_dl.gif Архив Консультант Плюс Консультант Плюс. Пополнения для федеральных баз с 22.07 по 26.07.2019 Varius
1 | 0

0 | 1414

1

2019-07-28 18:07
Varius Latest
./templates/default/images/folder_dl.gif Архив Консультант Плюс Консультант Плюс. Пополнения для федеральных баз с 19.08 по 23.08.2019 Dragonprochee
1 | 0

0 | 1082

2

2019-08-24 09:53
Dragonprochee Latest
./templates/default/images/folder_dl.gif Архив Консультант Плюс Консультант Плюс. Пополнения для федеральных баз с 26.08 по 30.08.2019 Dragonprochee
1 | 0

0 | 1053

2

2019-08-31 09:09
Dragonprochee Latest
./templates/default/images/folder_dl.gif Архив Консультант Плюс Консультант Плюс. Пополнения для федеральных баз с 09.09 по 13.09.2019 Varius
1 | 0

0 | 1099

0

2019-09-16 19:28
Varius Latest
./templates/default/images/folder_dl.gif Архив Консультант Плюс Консультант Плюс. Пополнения для федеральных баз с 16.09 по 20.09.2019 Varius
1 | 0

0 | 1037

0

2019-09-23 19:26
Varius Latest
./templates/default/images/folder_dl.gif Архив Консультант Плюс Консультант Плюс. Пополнения для федеральных баз с 21.10 по 25.10.2019 Varius
1 | 0

0 | 765

1

2019-10-29 08:36
Varius Latest
Display posts from previous:    
Reply to topic

The time now is: Today 12:34

All times are GMT + 3 Hours



You cannot post new topics in this forum
You cannot reply to topics in this forum
You cannot edit your posts in this forum
You cannot delete your posts in this forum
You cannot vote in polls in this forum
You cannot attach files in this forum
You cannot download files in this forum