Today is a free download without charge Download

Адские трассы (Дорога смерти) / Hell roads (Road of Death) (2012) SATRip

Reply to topic
 
Author
Message

Omen ®

Longevity: 7 years 10 months

Posts: 181087

Торрент-статистика

Post 09-Jan-2013 22:40

[Quote]

- Адские трассы (Дорога смерти) / Hell roads (Road of Death) (2012) SATRip - Режиссер / Телекомпания: Discovery
Русское название: Адские трассы
Оригинальное название: Hell roads
Год выпуска: 2012
Жанр: Документальный, научно-познавательный
Описание:
В мире есть восемь "адских трасс", полных коварных опасностей. Познакомьтесь с людьми, которым не страшны лавины, камнепады и даже перестрелки, и которые ездят по этим магистралям.
Режиссёр: Лоррейн Ди Риенцо/Lorraine DiRienzo
Продюсер: Энтони Амойя, Майкл Амойя, Jerome F. Calimeri
Перевод: Профессиональный одноголосый
Продолжительность: ~ 00:44:18
Видеокодек: XVID
Битрейт видео: ~1800 kb/s
Размер кадра: 720 x 420
Качество видео: SATRip
Аудиокодек: MP3, 2ch.
Битрейт аудио: 128 kb/s

MediaInfo

Формат : AVI
Формат/Информация : Audio Video Interleave
Размер файла : 615 Мбайт
Продолжительность : 44 м.
Общий поток : 1941 Кбит/сек
Программа кодирования : Lavf54.9.100
Видео
Идентификатор : 0
Формат : MPEG-4 Visual
Профиль формата : [email protected]
Параметр BVOP формата : Нет
Параметр QPel формата : Нет
Параметр GMC формата : Без точки перехода
Параметр матрицы формата : Default (H.263)
Идентификатор кодека : XVID
Идентификатор кодека/Подсказка : XviD
Продолжительность : 44 м.
Битрейт : 1800 Кбит/сек
Ширина : 740 пикселей
Высота : 420 пикселей
Соотношение сторон : 16:9
Частота кадров : 30,000 кадров/сек
Цветовое пространство : YUV
Субдискретизация насыщенности : 4:2:0
Битовая глубина : 8 бит
Тип развёртки : Прогрессивная
Метод сжатия : С потерями
Бит/(Пиксели*Кадры) : 0.193
Размер потока : 570 Мбайт (93%)
Библиотека кодирования : Lavc54.27.100
Аудио
Идентификатор : 1
Формат : MPEG Audio
Версия формата : Version 1
Профиль формата : Layer 3
Режим : Joint stereo
Расширение режима : MS Stereo
Идентификатор кодека : 55
Идентификатор кодека/Подсказка : MP3
Продолжительность : 44 м.
Вид битрейта : Постоянный
Битрейт : 128 Кбит/сек
Каналы : 2 канала
Частота : 48,0 КГц
Метод сжатия : С потерями
Размер потока : 40,6 Мбайт (7%)
Выравнивание : Соединение по промежуткам
Продолжительность промежутка : 24 мс. (0,72 видеокадр)
Время предзагрузки промежутка : 23 мс.
Библиотека кодирования : LAME3.99.5
Скриншоты:                    
Other forum [Profile] [PM]
Display posts from previous:    
Reply to topic

The time now is: Today 06:35

All times are GMT + 3 Hours



You cannot post new topics in this forum
You cannot reply to topics in this forum
You cannot edit your posts in this forum
You cannot delete your posts in this forum
You cannot vote in polls in this forum
You cannot attach files in this forum
You cannot download files in this forum