Today is a free download without charge Download

Discovery: Почему? Вопросы мироздания. Сексуальная жизнь американцев / Curiosity. Sex in America (2012) SATRip [сезон 2 серия 4]

Reply to topic
 
Author
Message

Omen ®

Longevity: 7 years 10 months

Posts: 181087

Торрент-статистика

Post 09-Jan-2013 22:40

[Quote]

-Discovery: Почему? Вопросы мироздания. Сексуальная жизнь американцев / Curiosity. Sex in America (2012) SATRip [сезон 2 серия 4]- Русское название: Discovery: Почему? Вопросы мироздания. Сексуальная жизнь американцев
Оригинальное название: Curiosity. Sex in America
Режиссер / Телекомпания: Ben Bowie, Alan Eyres
Год выпуска: 2012
Жанр: Документальный
Описание:
Рассказ о результатах одного из самых полных исследований сексуальной жизни Америки с эпохи доклада Кинси 1960-х годов. Что мы узнаем о сексуальном поведении в США?
Продолжительность: 00:44:01
Перевод: Двуголосый закадровый, профессиональный
Видеокодек: Xvid
Битрейт видео: ~25.00fps 1700kbps
Размер кадра: 720х392
Качество видео: SATRip
Аудиокодек: AC3
Битрейт аудио: 48000Hz stereo 192kbps

MediaInfo:

Формат : AVI
Формат/Информация : Audio Video Interleave
Размер файла : 670 Мбайт
Продолжительность : 44 м.
Общий поток : 2128 Кбит/сек
Программа кодирования : VirtualDubMod 1.5.10.3 | www.virtualdub-fr.org || (build 2550/release)
Библиотека кодирования : VirtualDubMod build 2550/release
Видео
Идентификатор : 0
Формат : MPEG-4 Visual
Профиль формата : Advanced [email protected]
Параметр BVOP формата : 3
Параметр QPel формата : Да
Параметр GMC формата : 3 точки перехода
Параметр матрицы формата : Default (H.263)
Идентификатор кодека : XVID
Идентификатор кодека/Подсказка : XviD
Продолжительность : 44 м.
Битрейт : 1926 Кбит/сек
Ширина : 720 пикс.
Высота : 392 пикс.
Соотношение сторон : 16:9
Частота кадров : 25,000 кадр/сек
Цветовое пространство : YUV
Подвыборка цветности : 4:2:0
Битовая глубина : 8 бит
Тип развёртки : Прогрессивная
Метод сжатия : С потерями
Бит/(Пиксели*Кадры) : 0.273
Размер потока : 606 Мбайт (91%)
Библиотека кодирования : XviD 1.2.1 (UTC 2008-12-04)
Аудио
Идентификатор : 1
Формат : AC-3
Формат/Информация : Audio Coding 3
Расширение режима : CM (complete main)
Идентификатор кодека : 2000
Продолжительность : 44 м.
Вид битрейта : Постоянный
Битрейт : 192 Кбит/сек
Канал(ы) : 2 канала(ов)
Расположение каналов : Front: L R
Частота : 48,0 КГц
Битовая глубина : 16 бит
Метод сжатия : С потерями
Размер потока : 60,5 Мбайт (9%)
Выравнивание : Разделение по промежуткам
Продолжительность промежутка : 40 мс. (1,00 видеокадр)
Время предзагрузки промежутка : 500 ms

Сезон 1:

[url=/forum/viewtopic.php?t=410825]01. Существует ли создатель[/url]
[url=/forum/viewtopic.php?t=410804]02. Нападение Пришельцев. Мы Готовы?[/url]
[url=/forum/viewtopic.php?t=416473]03. За что мы любим секс?[/url]
[url=/forum/viewtopic.php?t=410831]05. Существуют ли параллельные Вселенные[/url]
[url=/forum/viewtopic.php?t=431086]06. С чего началась Америка?[/url]
[url=/forum/viewtopic.php?t=410837]07. Наступит ли конец света[/url]
[url=/forum/viewtopic.php?t=418812]09. Пещерные люди [1 часть][/url]
[url=/forum/viewtopic.php?t=424796]09. Пещерные люди [2 часть][/url]
[url=/forum/viewtopic.php?t=413158]11. Можем ли мы жить вечно ?[/url]
[url=/forum/viewtopic.php?t=433991]12. Кто живет на нашем теле?[/url]
[url=/forum/viewtopic.php?t=436956]13. Природа нашего зла?[/url]
[url=/forum/viewtopic.php?t=428529]14. Как зарождается жизнь[/url]
[url=/forum/viewtopic.php?t=428535]15. Сколько стоит Америка?[/url]
[url=/forum/viewtopic.php?t=440380]16. Как действуют наркотики?[/url]

Сезон 2:

[url=/forum/viewtopic.php?t=574805]01. Треугольник Дьявола[/url]
[url=/forum/viewtopic.php?t=588078]04. Сексуальная жизнь американцев[/url]
[url=/forum/viewtopic.php?t=596136]07. Мегашторм / Megastorm[/url]
[url=/forum/viewtopic.php?t=590706]09. Вулкан-временная бомба[/url]
Скриншоты:
       
       
Время раздачи: 24/7 ( до первых скачавших, перебои со связью бывают,зависит от провайдера)
Other forum [Profile] [PM]
Display posts from previous:    
Reply to topic

The time now is: Today 18:19

All times are GMT + 3 Hours



You cannot post new topics in this forum
You cannot reply to topics in this forum
You cannot edit your posts in this forum
You cannot delete your posts in this forum
You cannot vote in polls in this forum
You cannot attach files in this forum
You cannot download files in this forum