Today is a free download without charge Download

Мастера выживания. Начальный курс выживания / Masters of Survival (2012) SATRip

Reply to topic
 
Author
Message

Omen ®

Longevity: 7 years 10 months

Posts: 181087

Торрент-статистика

Post 09-Jan-2013 22:40

[Quote]

- Мастера выживания. Начальный курс выживания / Masters of Survival (2012) SATRip - Режиссер / Телекомпания: Discovery
Русское название: Мастера выживания
Оригинальное название: Masters of Survival
Год выпуска: 2012
Жанр: Телепередача
Описание:
Эксперты по выживанию Лес Страуд, Беар Гриллс, Дейв Кентербери, Коди Ландин и Майкел и Рут Хоуки демонстрируют необходимые навыки выживания, которые должен знать каждый
Режиссёр: Paul Spillenger
Ведущий: Лес Страуд, Беар Гриллс, Дейв Кентербери, Коди Ландин, Майкел Хоуки
Перевод: Профессиональный (одноголосый)
Продолжительность: ~ 00:42:54
Видеокодек: XVID
Битрейт видео: ~1499 kb/s
Размер кадра: 704 x 400
Качество видео: SATRip
Аудиокодек: MP3, 2ch.
Битрейт аудио: 128 kb/s

MediaInfo

Формат : AVI
Формат/Информация : Audio Video Interleave
Размер файла : 502 Мбайт
Продолжительность : 42 м.
Общий поток : 1635 Кбит/сек
Библиотека кодирования : TMPGEnc 4.0 XPress Version. 4.7.7.307
Видео
Идентификатор : 0
Формат : MPEG-4 Visual
Профиль формата : Advanced [email protected]
Параметр BVOP формата : 2
Параметр QPel формата : Нет
Параметр GMC формата : Без точки перехода
Параметр матрицы формата : Default (H.263)
Режим смешивания : Сжатый битовый поток
Идентификатор кодека : XVID
Идентификатор кодека/Подсказка : XviD
Продолжительность : 42 м.
Битрейт : 1499 Кбит/сек
Ширина : 704 пикселя
Высота : 400 пикселей
Соотношение сторон : 16:9
Частота кадров : 25,000 кадров/сек
Цветовое пространство : YUV
Субдискретизация насыщенности : 4:2:0
Битовая глубина : 8 бит
Тип развёртки : Прогрессивная
Метод сжатия : С потерями
Бит/(Пиксели*Кадры) : 0.213
Размер потока : 460 Мбайт (92%)
Библиотека кодирования : XviD 64
Аудио
Идентификатор : 1
Формат : MPEG Audio
Версия формата : Version 1
Профиль формата : Layer 3
Режим : Joint stereo
Расширение режима : MS Stereo
Идентификатор кодека : 55
Идентификатор кодека/Подсказка : MP3
Продолжительность : 42 м.
Вид битрейта : Постоянный
Битрейт : 128 Кбит/сек
Каналы : 2 канала
Частота : 48,0 КГц
Метод сжатия : С потерями
Размер потока : 39,3 Мбайт (8%)
Выравнивание : Соединение по промежуткам
Продолжительность промежутка : 250 мс. (6,25 видеокадров)
Время предзагрузки промежутка : 192 мс.
Скриншоты:                    Время раздачи: 24/7. До первых 5 скачавших.
Rip by dimich24
Мастера выживания на NoNaMe Club
Other forum [Profile] [PM]
Similar theme
Forum Topic Author Torrent Replies Last Post
./templates/default/images/folder_dl.gif Обучающее видео Мастер-класс по нанесению декоративных покрытий "Оптимист" [Строительство, DVDRip, RUS] (Видеоурок) Omen
1 | 0

0 | 575

1

2012-12-17 19:24
Omen Latest
./templates/default/images/folder_dl.gif Rock (Progressive rock) [CD] Emerson Lake & Palmer: Pictures At An Exhibition, 1971 (японский ремастер 1999), FLAC (tracks+.cue), lossless Omen
0 | 1

0 | 707

0

2014-02-04 23:00
Omen Latest
./templates/default/images/folder_dl.gif Разное Хаха Лунг | Девять залов смерти. Секреты мастерства ниндзя (2010) [FB2, EPUB] }{@R0N
1 | 0

0 | 10520

7

2017-08-19 21:48
}{@R0N Latest
Display posts from previous:    
Reply to topic

The time now is: Today 07:58

All times are GMT + 3 Hours



You cannot post new topics in this forum
You cannot reply to topics in this forum
You cannot edit your posts in this forum
You cannot delete your posts in this forum
You cannot vote in polls in this forum
You cannot attach files in this forum
You cannot download files in this forum