Today is a free download without charge Download

Природа человека / Human Nature. Серия №1 (2012) SATRip

Reply to topic
 
Author
Message

Omen ®

Longevity: 7 years 10 months

Posts: 181087

Торрент-статистика

Post 09-Jan-2013 22:40

[Quote]

- Природа человека / Human Nature. Серия №1 (2012) SATRip - Режиссер / Телекомпания: Discovery
Русское название: Природа человека
Оригинальное название: Human Nature
Год выпуска: 2012
Жанр: Документальный, научно-познавательный, исследование
Описание:
Одних интересует техника, других – география, третьих – астрономия, но есть вопросы, которые волнуют практически каждого человека независимо от возраста, образования и увлечений. Discovery Channel вместе со зрителями будет искать на них ответы в самом масштабном проекте в истории канала, который выходит в эфир в октябре под названием "Почему? Вопросы мироздания". Есть ли разумная жизнь на других планетах? Почему обычные люди могут превращаться в жестоких монстров? Как появилось все сущее? Какова природа привлекательности? Чем больше мы об этом узнаем, тем больше возникает загадок, и поиск истины, который идет тысячелетия, продолжается снова и снова. Но именно поэтому подобные вопросы нас так волнуют и увлекают – ведь чем сложнее задача, тем сильнее хочется ее решить. Присоединяйтесь к бесконечному поиску с программой "Почему? Вопросы мироздания"
Режиссёр: Tria Thalman
Текст читал: Александр Хорлин
Перевод: Профессиональный одноголосый
Продолжительность: ~ 00:43:37
Видеокодек: XVID
Битрейт видео: ~1500 kb/s
Размер кадра: 704 x 400
Качество видео: SATRip
Аудиокодек: MP3, 2ch.
Битрейт аудио: 128 kb/s

MediaInfo

Формат : AVI
Формат/Информация : Audio Video Interleave
Размер файла : 510 Мбайт
Продолжительность : 43 м.
Общий поток : 1635 Кбит/сек
Библиотека кодирования : TMPGEnc 4.0 XPress Version. 4.7.7.307
Видео
Идентификатор : 0
Формат : MPEG-4 Visual
Профиль формата : Advanced [email protected]
Параметр BVOP формата : 2
Параметр QPel формата : Нет
Параметр GMC формата : Без точки перехода
Параметр матрицы формата : Default (H.263)
Режим смешивания : Сжатый битовый поток
Идентификатор кодека : XVID
Идентификатор кодека/Подсказка : XviD
Продолжительность : 43 м.
Битрейт : 1500 Кбит/сек
Ширина : 704 пикселя
Высота : 400 пикселей
Соотношение сторон : 16:9
Частота кадров : 25,000 кадров/сек
Цветовое пространство : YUV
Субдискретизация насыщенности : 4:2:0
Битовая глубина : 8 бит
Тип развёртки : Прогрессивная
Метод сжатия : С потерями
Бит/(Пиксели*Кадры) : 0.213
Размер потока : 468 Мбайт (92%)
Библиотека кодирования : XviD 64
Аудио
Идентификатор : 1
Формат : MPEG Audio
Версия формата : Version 1
Профиль формата : Layer 3
Режим : Joint stereo
Идентификатор кодека : 55
Идентификатор кодека/Подсказка : MP3
Продолжительность : 43 м.
Вид битрейта : Постоянный
Битрейт : 128 Кбит/сек
Каналы : 2 канала
Частота : 48,0 КГц
Метод сжатия : С потерями
Размер потока : 39,9 Мбайт (8%)
Выравнивание : Соединение по промежуткам
Продолжительность промежутка : 250 мс. (6,25 видеокадров)
Время предзагрузки промежутка : 192 мс.
Скриншоты:          Время раздачи: 24/7. До первых 5 скачавших.
Rip by dimich24
Природа человека на NoNaMe Club
Other forum [Profile] [PM]
Display posts from previous:    
Reply to topic

The time now is: Today 01:21

All times are GMT + 3 Hours



You cannot post new topics in this forum
You cannot reply to topics in this forum
You cannot edit your posts in this forum
You cannot delete your posts in this forum
You cannot vote in polls in this forum
You cannot attach files in this forum
You cannot download files in this forum