Today is a free download without charge Download

Первая неделя за решеткой: Держись своих / First Week In (2012) SATRip

Reply to topic
 
Author
Message

Omen ®

Longevity: 8 years 2 months

Posts: 181087

Торрент-статистика

Post 09-Jan-2013 22:39

[Quote]

- Первая неделя за решеткой: Держись своих / First Week In (2012) SATRip - Режиссер / Телекомпания: Discovery
Русское название: Первая неделя за решеткой
Оригинальное название: First Week In
Год выпуска: 2012
Жанр: Документальный, исследование, криминал
Описание:
Трое заключенных стараются привыкнуть к новым условиям жизни. Один нарушил местные правила, и ему угрожают, другой узнал, что доверять заключенным нельзя.
Перевод: Профессиональный одноголосый
Продолжительность: ~ 00:43:39
Видеокодек: XVID
Битрейт видео: ~1499 kb/s
Размер кадра: 704 x 400
Качество видео: SATRip
Аудиокодек: MP3, 2ch.
Битрейт аудио: 128 kb/s

MediaInfo

Формат : AVI
Формат/Информация : Audio Video Interleave
Размер файла : 510 Мбайт
Продолжительность : 43 м.
Общий поток : 1634 Кбит/сек
Библиотека кодирования : TMPGEnc 4.0 XPress Version. 4.7.7.307
Видео
Идентификатор : 0
Формат : MPEG-4 Visual
Профиль формата : Advanced [email protected]
Параметр BVOP формата : 2
Параметр QPel формата : Нет
Параметр GMC формата : Без точки перехода
Параметр матрицы формата : Default (H.263)
Режим смешивания : Сжатый битовый поток
Идентификатор кодека : XVID
Идентификатор кодека/Подсказка : XviD
Продолжительность : 43 м.
Битрейт : 1499 Кбит/сек
Ширина : 704 пикселя
Высота : 400 пикселей
Соотношение сторон : 16:9
Частота кадров : 25,000 кадров/сек
Цветовое пространство : YUV
Субдискретизация насыщенности : 4:2:0
Битовая глубина : 8 бит
Тип развёртки : Прогрессивная
Метод сжатия : С потерями
Бит/(Пиксели*Кадры) : 0.213
Размер потока : 468 Мбайт (92%)
Библиотека кодирования : XviD 64
Аудио
Идентификатор : 1
Формат : MPEG Audio
Версия формата : Version 1
Профиль формата : Layer 3
Режим : Joint stereo
Расширение режима : MS Stereo
Идентификатор кодека : 55
Идентификатор кодека/Подсказка : MP3
Продолжительность : 43 м.
Вид битрейта : Постоянный
Битрейт : 128 Кбит/сек
Каналы : 2 канала
Частота : 48,0 КГц
Метод сжатия : С потерями
Размер потока : 40,0 Мбайт (8%)
Выравнивание : Соединение по промежуткам
Продолжительность промежутка : 250 мс. (6,25 видеокадров)
Время предзагрузки промежутка : 192 мс.
Скриншоты:          Время раздачи: 24/7. До первых 5 скачавших.
Rip by dimich24
Первая неделя за решеткой на NoNaMe Club
Other forum [Profile] [PM]
Similar theme
Forum Topic Author Torrent Replies Last Post
./templates/default/images/folder_dl.gif Медицина и Здоровье Игорь Платонов и др. | Первая помощь. Что нужно знать каждому (2013) [PDF] moralis
1 | 0

0 | 1471

6

2016-02-02 18:55
moralis Latest
Display posts from previous:    
Reply to topic

The time now is: Today 03:14

All times are GMT + 3 Hours



You cannot post new topics in this forum
You cannot reply to topics in this forum
You cannot edit your posts in this forum
You cannot delete your posts in this forum
You cannot vote in polls in this forum
You cannot attach files in this forum
You cannot download files in this forum