Today is a free download without charge Download

Discovery: Почему? Вопросы мироздания. Мегашторм (Ураган Сэнди буря, которая потрясла Америку) / Curiosity. Megastorm (Superstorm New York) (2012) SATRip[сезон 2 серия 7]

Reply to topic
 
Author
Message

Omen ®

Longevity: 7 years 10 months

Posts: 181087

Торрент-статистика

Post 09-Jan-2013 22:39

[Quote]

-Discovery: Почему? Вопросы мироздания. Мегашторм (Ураган Сэнди буря, которая потрясла Америку) / Curiosity. Megastorm (Superstorm New York) (2012) SATRip [сезон 2 серия 7]- Автор рипа Ангел тьмы
Русское название: Discovery: Почему? Вопросы мироздания. Мегашторм (Ураган Сэнди буря, которая потрясла Америку)
Оригинальное название: Curiosity. Megastorm
Режиссер / Телекомпания: Darlow Smithson Productions Ltd, Discovery Channel
Год выпуска: 2012
Жанр: Документальный
Описание:
Одних интересует техника, других - география, третьих – астрономия, но есть вопросы, которые волнуют практически каждого человека независимо от возраста, образования и увлечений. Discovery Channel вместе со зрителями будет искать на них ответы в самом масштабном проекте в истории канала, который выходит в эфир в октябре под названием "Почему? Вопросы мироздания". Есть ли разумная жизнь на других планетах? Почему обычные люди могут превращаться в жестоких монстров? Как появилось все сущее? Какова природа привлекательности? Чем больше мы об этом узнаем, тем больше возникает загадок, и поиск истины, который идет тысячелетия, продолжается снова и снова. Но именно поэтому подобные вопросы нас так волнуют и увлекают - ведь чем сложнее задача, тем сильнее хочется ее решить. Присоединяйтесь к бесконечному поиску с документальным сериалом "Почему? Вопросы мироздания".
07. Мегашторм (Ураган Сэнди буря, которая потрясла Америку) / Megastorm (Superstorm New York)
Масштабное наводнение, миллионы людей, оставшихся без электричества, многочисленные человеческие жертвы, горе и безысходность. Узнайте, почему произошло это масштабное бедствие и может ли оно повториться. Программа "Разрушительный ураган "Сэнди" это специальный одночасовой выпуск, рассказывающий об ущербе, причиненном разбушевавшейся стихией. Сильнейшая и беспощадная буря унесла жизни 110 человек и парализовала жизнь миллионов жителей 6 штатов. Тысячи людей оказались оторванными от дома, и миллионы были лишены электричества. Самый сильный удар пришелся на Нью-Джерси и Нью-Йорк, которые все еще не оправились от последствий. Узнайте первыми, как "Франкеншторм" (как назвали этот ужасающий шторм в прессе) развивался и наращивал силу, унеся почти 200 жизней от Карибов до Восточного побережья Америки. Что еще приготовила нам природа в 21 веке?
Продолжительность: 00:40:00
Перевод: Одноголосый закадровый, профессиональный
Видеокодек: Xvid
Битрейт видео: ~25.00fps 2328kbps
Размер кадра: 720х384
Качество видео: SATRip
Аудиокодек: MP3
Битрейт аудио: 44100Hz stereo 128kbps

MediaInfo:

Формат : AVI
Формат/Информация : Audio Video Interleave
Размер файла : 706 Мбайт
Продолжительность : 40 м.
Общий поток : 2469 Кбит/сек
Видео
Идентификатор : 0
Формат : MPEG-4 Visual
Профиль формата : [email protected]
Параметр BVOP формата : Нет
Параметр QPel формата : Нет
Параметр GMC формата : Без точки перехода
Параметр матрицы формата : Default (H.263)
Идентификатор кодека : XVID
Идентификатор кодека/Подсказка : XviD
Продолжительность : 40 м.
Битрейт : 2328 Кбит/сек
Ширина : 704 пикс.
Высота : 384 пикс.
Соотношение сторон : 16:9
Частота кадров : 25,000 кадр/сек
Цветовое пространство : YUV
Подвыборка цветности : 4:2:0
Битовая глубина : 8 бит
Тип развёртки : Прогрессивная
Метод сжатия : С потерями
Бит/(Пиксели*Кадры) : 0.344
Размер потока : 666 Мбайт (94%)
Аудио
Идентификатор : 1
Формат : MPEG Audio
Версия формата : Version 1
Профиль формата : Layer 3
Идентификатор кодека : 55
Идентификатор кодека/Подсказка : MP3
Продолжительность : 39 м.
Вид битрейта : Постоянный
Битрейт : 128 Кбит/сек
Канал(ы) : 2 канала(ов)
Частота : 44,1 КГц
Метод сжатия : С потерями
Размер потока : 36,6 Мбайт (5%)
Выравнивание : Разделение по промежуткам
Продолжительность промежутка : 26 мс. (0,65 видеокадр)
Библиотека кодирования : LAME3.98.2

Сезон 1:

[url=/forum/viewtopic.php?t=410825]01. Существует ли создатель[/url]
[url=/forum/viewtopic.php?t=410804]02. Нападение Пришельцев. Мы Готовы?[/url]
[url=/forum/viewtopic.php?t=416473]03. За что мы любим секс?[/url]
[url=/forum/viewtopic.php?t=410831]05. Существуют ли параллельные Вселенные[/url]
[url=/forum/viewtopic.php?t=431086]06. С чего началась Америка?[/url]
[url=/forum/viewtopic.php?t=410837]07. Наступит ли конец света[/url]
[url=/forum/viewtopic.php?t=418812]09. Пещерные люди [1 часть][/url]
[url=/forum/viewtopic.php?t=424796]09. Пещерные люди [2 часть][/url]
[url=/forum/viewtopic.php?t=413158]11. Можем ли мы жить вечно ?[/url]
[url=/forum/viewtopic.php?t=433991]12. Кто живет на нашем теле?[/url]
[url=/forum/viewtopic.php?t=436956]13. Природа нашего зла?[/url]
[url=/forum/viewtopic.php?t=428529]14. Как зарождается жизнь[/url]
[url=/forum/viewtopic.php?t=428535]15. Сколько стоит Америка?[/url]
[url=/forum/viewtopic.php?t=440380]16. Как действуют наркотики?[/url]

Сезон 2:

[url=/forum/viewtopic.php?t=574805]01. Треугольник Дьявола[/url]
[url=/forum/viewtopic.php?t=588078]04. Сексуальная жизнь американцев[/url]
[url=/forum/viewtopic.php?t=596136]07. Мегашторм / Megastorm[/url]
[url=/forum/viewtopic.php?t=590706]09. Вулкан-временная бомба[/url]
[url=/forum/viewtopic.php?t=593756]__. Марсианские хроники[/url]
Скриншоты:
         
         
Время раздачи: 24/7 ( до первых скачавших, перебои со связью бывают,зависит от провайдера)
Other forum [Profile] [PM]
Display posts from previous:    
Reply to topic

The time now is: Today 07:10

All times are GMT + 3 Hours



You cannot post new topics in this forum
You cannot reply to topics in this forum
You cannot edit your posts in this forum
You cannot delete your posts in this forum
You cannot vote in polls in this forum
You cannot attach files in this forum
You cannot download files in this forum