Today is a free download without charge Download

Лабиринт Фавна / El laberinto del fauno / Pan's Labyrinth (2006) [720p] BDRip

Reply to topic
 
Author
Message

sashau ®

Gender:

Longevity: 9 years 4 months

Posts: 3497

Торрент-статистика

Post 09-Jan-2013 22:07

[Quote]

Лабиринт Фавна / El laberinto del fauno / Pan's Labyrinth- Русское название: Лабиринт Фавна
Оригинальное название: El laberinto del fauno / Pan's Labyrinth
Год выпуска: 2006
Производство: Испания, Мексика, США
Жанр: Фэнтези, Драма, Военный
Продолжительность: 01:58:51
Перевод: Дублированный, Двухголосый закадровый
Субтитры: Русские, Английские
Вид субтитров: Вшитые отключаемые
Режиссер: Гильермо дель Торо
Актеры: Ивана Бакеро, Серхи Лопес, Марибель Верду, Даг Джонс, Ариадна Хиль, Алекс Ангуло, Маноло Соло, Сезар Ви, Рожер Казамажор, Иван Массаге
Описание фильма:
Испания, 1944 год. Офелия — 10-летняя одинокая и мечтательная девочка, переезжает со своей беременной матерью Кармен в военный лагерь отчима капитана Видаля. Видаль — высокомерный и жестокий офицер армии Франко, который должен очистить район от повстанцев любой ценой. Офелия, увлеченная волшебными сказками, обнаруживает старинный заброшенный лабиринт неподалеку от дома. Фея проводит ее в центр лабиринта, где она встречает Фавна, хозяина подземелья...-
Дата мировой премьеры: 27 мая 2006
Дата российской премьеры: 30 ноября 2006, «RUSCICO»
Дата выхода DVD релиза: 22 сентября 2009, «Флагман-Трейд»
Качество видео: BDRip [720p]
Видеокодек: MPEG-4 AVC/H.264
Видео: 1280x720, ~5837 Кбит/с
Аудио 1: AC3, 6 ch, 448 Кбит/с [Дублированный, Русский R5]
Аудио 2: DTS, 6 ch, 1510 Кбит/с [Двухголосый, Гланц и Королёва]
Аудио 3: DTS, 6 ch, 1510 Кбит/с [Оригинал, Испанский]
Аудио 4: AC3, 2 ch, 224 Кбит/с [Комментарии, Испанский]

MediaInfo:

Общее
Уникальный идентификатор : 234536232116771899831350649805065903348 (0xB0720905FF067672B0C6FA4BFBFF5CF4)
Полное имя : El.laberinto.del.fauno.2006.BDRip.720p.mkv
Формат : Matroska
Версия формата : Version 2
Размер файла : 7,91 Гбайт
Продолжительность : 1 ч. 58 м.
Общий поток : 9529 Кбит/сек
Название фильма : El laberinto del fauno (2006) - Release for HDCLUB
Дата кодирования : UTC 2010-12-13 23:40:23
Программа кодирования : mkvmerge v3.4.0 ('Rapunzel') built on May 15 2010 09:38:20
Библиотека кодирования : libebml v0.8.0 + libmatroska v0.9.0
Видео
Идентификатор : 1
Формат : AVC
Формат/Информация : Advanced Video Codec
Профиль формата : [url=mailto:[email protected]][email protected][/url]
Параметр CABAC формата : Да
Параметр ReFrames формата : 9 кадров
Идентификатор кодека : V_MPEG4/ISO/AVC
Продолжительность : 1 ч. 58 м.
Битрейт : 5837 Кбит/сек
Ширина : 1280 пикселей
Высота : 720 пикселей
Соотношение сторон : 16:9
Частота кадров : 23,976 кадра/сек
Цветовое пространство : YUV
Субдискретизация насыщенности : 4:2:0
Битовая глубина : 8 бит
Тип развёртки : Прогрессивная
Бит/(Пиксели*Кадры) : 0.264
Размер потока : 4,69 Гбайт (59%)
Заголовок : Release for HDCLUB
Библиотека кодирования : x264 core 107 r1766 f9f0035
Настройки программы : cabac=1 / ref=9 / deblock=1:-3:-3 / analyse=0x3:0x113 / me=umh / subme=10 / psy=1 / psy_rd=1.00:0.00 / mixed_ref=1 / me_range=32 / chroma_me=1 / trellis=2 / 8x8dct=1 / cqm=0 / deadzone=21,11 / fast_pskip=0 / chroma_qp_offset=-2 / threads=6 / sliced_threads=0 / nr=0 / decimate=0 / interlaced=0 / constrained_intra=0 / bframes=9 / b_pyramid=2 / b_adapt=2 / b_bias=0 / direct=3 / weightb=1 / open_gop=0 / weightp=2 / keyint=250 / keyint_min=23 / scenecut=40 / intra_refresh=0 / rc_lookahead=40 / rc=2pass / mbtree=0 / bitrate=5837 / ratetol=1.0 / qcomp=0.70 / qpmin=10 / qpmax=51 / qpstep=4 / cplxblur=20.0 / qblur=0.5 / vbv_maxrate=50000 / vbv_bufsize=62500 / ip_ratio=1.40 / pb_ratio=1.30 / aq=2:0.75 / nal_hrd=none
Язык : Spanish
Default : Да
Forced : Нет
Коэффициенты матрицы : BT.709-5, BT.1361, IEC 61966-2-4 709, SMPTE RP177
Аудио #1
Идентификатор : 2
Формат : AC-3
Формат/Информация : Audio Coding 3
Расширение режима : CM (complete main)
Идентификатор кодека : A_AC3
Продолжительность : 1 ч. 58 м.
Вид битрейта : Постоянный
Битрейт : 448 Кбит/сек
Каналы : 6 каналов
Расположение каналов : Front: L C R, Side: L R, LFE
Частота : 48,0 КГц
Битовая глубина : 16 бит
Метод сжатия : С потерями
Размер потока : 381 Мбайт (5%)
Заголовок : AC3; 448 Kbps @ 5.1 ch - (Dubbing)
Язык : Russian
Default : Да
Forced : Нет
Аудио #2
Идентификатор : 3
Формат : DTS
Формат/Информация : Digital Theater Systems
Идентификатор кодека : A_DTS
Продолжительность : 1 ч. 58 м.
Вид битрейта : Постоянный
Битрейт : 1510 Кбит/сек
Каналы : 6 каналов
Расположение каналов : Front: L C R, Side: L R, LFE
Частота : 48,0 КГц
Битовая глубина : 24 бит
Метод сжатия : С потерями
Размер потока : 1,25 Гбайт (16%)
Заголовок : DTS; 1536 Kbps @ 5.1 ch - (MVO) P.Glanz & I.Koroleva (- core)
Язык : Russian
Default : Нет
Forced : Нет
Аудио #3
Идентификатор : 4
Формат : DTS
Формат/Информация : Digital Theater Systems
Идентификатор кодека : A_DTS
Продолжительность : 1 ч. 58 м.
Вид битрейта : Постоянный
Битрейт : 1510 Кбит/сек
Каналы : 6 каналов
Расположение каналов : Front: L C R, Side: L R, LFE
Частота : 48,0 КГц
Битовая глубина : 24 бит
Метод сжатия : С потерями
Размер потока : 1,25 Гбайт (16%)
Заголовок : DTS; 1536 Kbps @ 5.1 ch (- core)
Язык : Spanish
Default : Нет
Forced : Нет
Аудио #4
Идентификатор : 5
Формат : AC-3
Формат/Информация : Audio Coding 3
Расширение режима : CM (complete main)
Идентификатор кодека : A_AC3
Продолжительность : 1 ч. 58 м.
Вид битрейта : Постоянный
Битрейт : 224 Кбит/сек
Каналы : 2 канала
Расположение каналов : Front: L R
Частота : 48,0 КГц
Битовая глубина : 16 бит
Метод сжатия : С потерями
Размер потока : 190 Мбайт (2%)
Заголовок : AC3; 224 Kbps @ 2 ch - Commenatry track by Guillermo del Toro
Язык : English
Default : Нет
Forced : Нет
Текст #1
Идентификатор : 6
Формат : UTF-8
Идентификатор кодека : S_TEXT/UTF8
Идентификатор кодека/Информация : UTF-8 Plain Text
Заголовок : Full
Язык : Russian
Default : Нет
Forced : Нет
Текст #2
Идентификатор : 7
Формат : UTF-8
Идентификатор кодека : S_TEXT/UTF8
Идентификатор кодека/Информация : UTF-8 Plain Text
Заголовок : Full
Язык : English
Default : Нет
Forced : Нет
Меню
00:00:00.000 : en:00:00:00.000
00:11:13.965 : en:00:11:13.965
00:17:53.948 : en:00:17:53.948
00:24:36.016 : en:00:24:36.016
00:31:41.733 : en:00:31:41.733
00:38:17.754 : en:00:38:17.754
00:43:35.530 : en:00:43:35.530
00:50:21.393 : en:00:50:21.393
00:55:21.735 : en:00:55:21.735
01:02:20.153 : en:01:02:20.153
01:11:47.803 : en:01:11:47.803
01:23:30.088 : en:01:23:30.088
01:31:12.258 : en:01:31:12.258
01:41:33.796 : en:01:41:33.796
01:52:04.009 : en:01:52:04.009
Скриншоты:
       
       
Other forum [Profile] [PM]
Display posts from previous:    
Reply to topic

The time now is: Today 23:34

All times are GMT + 3 Hours



You cannot post new topics in this forum
You cannot reply to topics in this forum
You cannot edit your posts in this forum
You cannot delete your posts in this forum
You cannot vote in polls in this forum
You cannot attach files in this forum
You cannot download files in this forum