Today is a free download without charge Download

Накал страстей / Fever Pitch (Дэвид Эванс / David Evans) [1997, Великобритания, драма, мелодрама, комедия, спорт, BDRip 720p] DVO + Rus sub, Eng sub

Reply to topic
 
Author
Message

Omen ®

Longevity: 8 years 5 months

Posts: 181087

Торрент-статистика

Post 09-Jan-2013 20:08

[Quote]

Накал страстей / Fever Pitch Год выпуска: 1997
Страна: Великобритания
Жанр: драма, мелодрама, комедия, спорт
Продолжительность: 01:42:46
Перевод: Профессиональный двухголосый закадровый (SDI Media Group)
Субтитры: Русские, английские

Режиссер: Дэвид Эванс / David Evans
В ролях: Колин Ферт, Рут Геммелль, Люк Айкман, Беа Гард, Нил Пирсон, Ричард Клэкстон, Кен Стотт, Холли Аирд, Марк Стронг, Лоррейн Эшборн, Чарльз Корк, Боб Кертис, Филип Бонд, Скотт Бэйкер, Джо Реддингтон, Грэхэм Кулл, Майк Ингэм, Сэм Данбар Бэнкс, Ли Фаннелл, Саймон Бауэн, Сайлас Карсон, Джеффри Дрю, Стивен Ри, Лайам Степлтон, Эмили Конуэй, Тони Лонгхерст

Описание:С самого детства, проведенного в Северном Лондоне, Пол Эшуорт был верным болельщиком футбольной команды «Арсенал». Теперь в возрасте 30 с лишним лет Пол преподает английский язык и встречается с Сарой, которая тоже работает учительницей в его школе. Xотя Сара — красивая, умная девушка и во всех отношениях «отличная партия», она вовсе не интересуется футболом. Уже будучи беременной, Сара серьезно задумывается о будущности их отношений и заставляет Пола сделать выбор между ней и их ребенком и «Арсеналом».
Качество: BDRip 720p
Формат: MKV
Видео кодек: x264
Аудио кодек: AC3
Видео: MPEG-4 AVC, 1280x720, 24 fps, 5641 kbps, 0.255 bit/pixel
Аудио 1: Русский (AC3, 48 kHz, 2 ch, 192 kbps)
Аудио 1: Английский (AC3, 48 kHz, 2 ch, 448 kbps)
Формат субтитров: softsub (SRT)

MI

Код:
Общее
Полное имя                       : D:\Nakal.strastej.1997.x264.BDRip.720p.mkv
Формат                           : Matroska
Версия формата                   : Version 2
Размер файла                     : 4,51 Гбайт
Продолжительность                : 1 ч. 42 м.
Общий поток                      : 6283 Кбит/сек
Дата кодирования                 : UTC 2012-05-30 09:10:53
Программа кодирования            : mkvmerge v5.2.1 ('A Far Off Place') built on Jan  7 2012 21:56:27
Библиотека кодирования           : libebml v1.2.3 + libmatroska v1.3.0
Видео
Идентификатор                    : 1
Формат                           : AVC
Формат/Информация                : Advanced Video Codec
Профиль формата                  : [email protected]
Параметр CABAC формата           : Да
Параметр ReFrames формата        : 5 кадров
Идентификатор кодека             : V_MPEG4/ISO/AVC
Продолжительность                : 1 ч. 42 м.
Битрейт                          : 5643 Кбит/сек
Ширина                           : 1280 пикселей
Высота                           : 720 пикселей
Соотношение сторон               : 16:9
Частота кадров                   : 24,000 кадра/сек
Цветовое пространство            : YUV
Субдискретизация насыщенности    : 4:2:0
Битовая глубина                  : 8 бит
Тип развёртки                    : Прогрессивная
Бит/(Пиксели*Кадры)              : 0.255
Размер потока                    : 3,96 Гбайт (88%)
Библиотека кодирования           : x264 core 120 r2164 da19765
Настройки программы              : cabac=1 / ref=5 / deblock=1:0:0 / analyse=0x3:0x133 / me=umh / subme=7 / psy=1 / psy_rd=1.00:0.00 / mixed_ref=1 / me_range=16 / chroma_me=1 / trellis=1 / 8x8dct=1 / cqm=0 / deadzone=21,11 / fast_pskip=0 / chroma_qp_offset=-2 / threads=24 / sliced_threads=0 / nr=0 / decimate=1 / interlaced=0 / bluray_compat=0 / constrained_intra=0 / bframes=3 / b_pyramid=2 / b_adapt=1 / b_bias=0 / direct=3 / weightb=1 / open_gop=0 / weightp=2 / keyint=240 / keyint_min=24 / scenecut=40 / intra_refresh=0 / rc_lookahead=40 / rc=2pass / mbtree=1 / bitrate=5643 / ratetol=1.0 / qcomp=0.60 / qpmin=10 / qpmax=51 / qpstep=4 / cplxblur=20.0 / qblur=0.5 / ip_ratio=1.40 / aq=1:1.00
Язык                             : English
Default                          : Да
Forced                           : Нет
Аудио #1
Идентификатор                    : 2
Формат                           : AC-3
Формат/Информация                : Audio Coding 3
Расширение режима                : CM (complete main)
Идентификатор кодека             : A_AC3
Продолжительность                : 1 ч. 42 м.
Вид битрейта                     : Постоянный
Битрейт                          : 192 Кбит/сек
Каналы                           : 2 канала
Расположение каналов             : Front: L R
Частота                          : 48,0 КГц
Битовая глубина                  : 16 бит
Метод сжатия                     : С потерями
Размер потока                    : 141 Мбайт (3%)
Заголовок                        : Russian DVO
Default                          : Да
Forced                           : Нет
Аудио #2
Идентификатор                    : 3
Формат                           : AC-3
Формат/Информация                : Audio Coding 3
Расширение режима                : CM (complete main)
Идентификатор кодека             : A_AC3
Продолжительность                : 1 ч. 42 м.
Вид битрейта                     : Постоянный
Битрейт                          : 448 Кбит/сек
Каналы                           : 2 канала
Расположение каналов             : Front: L R
Частота                          : 48,0 КГц
Битовая глубина                  : 16 бит
Метод сжатия                     : С потерями
Размер потока                    : 329 Мбайт (7%)
Заголовок                        : Original
Язык                             : English
Default                          : Нет
Forced                           : Нет
Текст #1
Идентификатор                    : 4
Формат                           : UTF-8
Идентификатор кодека             : S_TEXT/UTF8
Идентификатор кодека/Информация  : UTF-8 Plain Text
Заголовок                        : Russian
Язык                             : Russian
Default                          : Нет
Forced                           : Нет
Текст #2
Идентификатор                    : 5
Формат                           : UTF-8
Идентификатор кодека             : S_TEXT/UTF8
Идентификатор кодека/Информация  : UTF-8 Plain Text
Заголовок                        : English
Язык                             : English
Default                          : Нет
Forced                           : Нет

Скриншоты


Other forum [Profile] [PM]
Display posts from previous:    
Reply to topic

The time now is: Today 03:19

All times are GMT + 3 Hours



You cannot post new topics in this forum
You cannot reply to topics in this forum
You cannot edit your posts in this forum
You cannot delete your posts in this forum
You cannot vote in polls in this forum
You cannot attach files in this forum
You cannot download files in this forum