Today is a free download without charge Download

Петля времени / Looper [Райан Джонсон] (Фантастика, Боевик, Триллер, Криминал 2012) [720p] BDRip

Reply to topic
 
Author
Message

Витек1 ®

Gender:

Longevity: 8 years 3 months

Posts: 451

Location: Житомир

Торрент-статистика

Post 09-Jan-2013 19:11

[Quote]

Петля времени / Looper (2012) BDRip
«В плену будущего. В плену прошлого»
- Русское название: Петля времени
Оригинальное название: Looper
Год выпуска: 2012
Производство: США, Китай / DMG Entertainment, Endgame Entertainment, FilmDistrict
Жанр: Фантастика, Боевик, Триллер, Криминал
Перевод: Дублированный [лицензия]
Субтитры: Вшитые отключаемые
Язык субтитров: Английский
Дата мировой премьеры: 6 сентября 2012
Дата российской премьеры: 27 сентября 2012, «Top Film Distribution»
Дата выхода DVD релиза: 29 ноября 2012, «Новый Диск», «New Dream media»
Режиссер: Райан Джонсон
Актеры: Брюс Уиллис, Джозеф Гордон-Левитт, Эмили Блант, Пайпер Перабо, Пол Дано, Гаррет Диллахант, Джефф Дэниелс, Трейси Томс, Пирс Гэнон, Ан Нуу Нгуйен
Описание фильма:
В недалеком будущем, где стали возможны путешествия во времени, некая корпорация убирает нежелательных людей, отправляя их в прошлое в пластиковых пакетах. Задача принимающей стороны — убить жертву, стерев тем самым несчастного из истории. Все идет гладко до тех пор, пока главный герой не распаковывает очередной пакет, обнаруживая в нем… самого себя из будущего.

Продолжительность: 01:58:53
Качество видео: BDRip
Видеокодек: MPEG-4 AVC/H.264
Битрейт видео: ~5070 Кбит/сек
Размер кадра: 1280x544
Аудио #1: Русский (Dolby AC3, 6 ch) 448 Кбит/сек
Аудио #2: Английский (DTS, 6 ch) 1510 Кбит/сек

"MediaInfo:"

General
Unique ID : 219105347258212768296502487162639306155 (0xA4D627A93AE447CBB0B69B38D0EF4DAB)
Complete name :\Петля.времени.2012.D.BDRip.720p.mkv
Format: Matroska
Format version: Version 2
File size : 5.84 GB
Duration: 1h 58mn
Overall bit rate: 7 027 Kbps
Movie name ПаZиtиFFк@
Encoded date: UTC 2012-12-12 17:33:15
Writing application : mkvmerge v5.8.0 ('No Sleep / Pillow') built on Sep 2 2012 15:37:04
Writing library : libebml v1.2.3 + libmatroska v1.3.0
Video
ID: 1
Format: AVC
Format/Info: Advanced Video Codec
Format profile: mailto:[email protected]][email protected]
Format settings, CABAC: Yes
Format settings, ReFrames : 5 frames
Codec ID: V_MPEG4/ISO/AVC
Duration: 1h 58mn
Bit rate: 5 070 Kbps
Width : 1 280 pixels
Height: 544 pixels
Display aspect ratio: 2.35:1
Frame rate mode : Constant
Frame rate: 23.976 fps
Color space : YUV
Chroma subsampling: 4:2:0
Bit depth : 8 bits
Scan type : Progressive
Bits/(Pixel*Frame): 0.304
Stream size : 4.09 GiB (70%)
Title : /*spam*/ + ПаZиtиFFк@
Writing library : x264 core 129 r2230 1cffe9f
Encoding settings : cabac=1 / ref=5 / deblock=1:0:0 / analyse=0x3:0x133 / me=umh / subme=7 / psy=1 / psy_rd=1.00:0.00 / mixed_ref=1 / me_range=16 / chroma_me=1 / trellis=1 / 8x8dct=1 / cqm=0 / deadzone=21,11 / fast_pskip=0 / chroma_qp_offset=-2 / threads=12 / lookahead_threads=2 / sliced_threads=0 / nr=0 / decimate=1 / interlaced=0 / bluray_compat=0 / constrained_intra=0 / bframes=3 / b_pyramid=2 / b_adapt=1 / b_bias=0 / direct=1 / weightb=1 / open_gop=0 / weightp=2 / keyint=250 / keyint_min=23 / scenecut=40 / intra_refresh=0 / rc_lookahead=40 / rc=2pass / mbtree=1 / bitrate=5070 / ratetol=1.0 / qcomp=0.60 / qpmin=0 / qpmax=69 / qpstep=4 / cplxblur=20.0 / qblur=0.5 / ip_ratio=1.40 / aq=1:1.00
Language: English
Default : Yes
Forced: No
Audio #1
ID: 2
Format: AC-3
Format/Info : Audio Coding 3
Mode extension: CM (complete main)
Format settings, Endianness : Big
Codec ID: A_AC3
Duration: 1h 58mn
Bit rate mode : Constant
Bit rate: 448 Kbps
Channel(s): 6 channels
Channel positions : Front: L C R, Side: L R, LFE
Sampling rate : 48.0 KHz
Bit depth : 16 bits
Compression mode: Lossy
Stream size : 381 MiB (6%)
Title : Dub
Language: Russian
Default : Yes
Forced: No
Audio #2
ID: 3
Format: DTS
Format/Info : Digital Theater Systems
Mode: 16
Format settings, Endianness : Big
Codec ID: A_DTS
Duration: 1h 58mn
Bit rate mode : Constant
Bit rate: 1 509 Kbps
Channel(s): 6 channels
Channel positions : Front: L C R, Side: L R, LFE
Sampling rate : 48.0 KHz
Bit depth: 24 bits
Compression mode: Lossy
Stream size : 1.25 GiB (21%)
Title : Original
Language: English
Default : No
Forced: No
Text #1
ID: 4
Format: UTF-8
Codec ID: S_TEXT/UTF8
Codec ID/Info : UTF-8 Plain Text
Language: English
Default : No
Forced: No
Text #2
ID: 5
Format: UTF-8
Codec ID: S_TEXT/UTF8
Codec ID/Info : UTF-8 Plain Text
Title : Forced
Language: English
Default : No
Forced: No
Text #3
ID: 6
Format: UTF-8
Codec ID: S_TEXT/UTF8
Codec ID/Info : UTF-8 Plain Text
Language: English
Default : No
Forced: No
Menu
00:00:00.000: en:00:00:00.000
00:07:27.447: en:00:07:27.447
00:13:31.686: en:00:13:31.686
00:21:22.490: en:00:21:22.490
00:26:48.106: en:00:26:48.106
00:31:51.201: en:00:31:51.201
00:41:28.403: en:00:41:28.403
00:49:33.429: en:00:49:33.429
00:54:10.414: en:00:54:10.414
01:00:35.006: en:01:00:35.006
01:08:09.919: en:01:08:09.919
01:15:23.352: en:01:15:23.352
01:23:57.741: en:01:23:57.741
01:34:25.869: en:01:34:25.869
01:41:04.433: en:01:41:04.433
01:46:29.383: en:01:46:29.383

"Скриншоты"

               

_________________
Скачал сам, дай скачать другому!!!Не забудь сказать -
Other forum [Profile] [PM]

Dracula

Longevity: 7 years 6 months

Posts: 11224

Торрент-статистика

Post 09-Jan-2013 20:06 (after 55 minutes)

Топик был перенесен из форума Фильмы 2012 в форум Зарубежное кино (HD Video)


kogesan
 
Display posts from previous:    
Reply to topic

The time now is: Today 20:37

All times are GMT + 3 Hours



You cannot post new topics in this forum
You cannot reply to topics in this forum
You cannot edit your posts in this forum
You cannot delete your posts in this forum
You cannot vote in polls in this forum
You cannot attach files in this forum
You cannot download files in this forum