Today is a free download without charge Download

Призрак / Призрак дома на холме / Логово дьявола / The Haunting (Роберт Уайз / Robert Wise) [1963, Великобритания, США, ужасы, мистика, WEB-DLRip 720p] VO (fiendover) + original (eng) + commentary (rus) + sub (eng, swe)

Reply to topic
 
Author
Message

Omen ®

Longevity: 8 years 5 months

Posts: 181087

Торрент-статистика

Post 09-Jan-2013 13:44

[Quote]

Призрак / Призрак дома на холме / Логово дьявола / The Haunting
Год выпуска: 1963
Страна: Великобритания, США
Жанр: ужасы, триллер
Продолжительность: 01:51:51
Перевод: Одноголосый (закадровый)(fiendover)
Субтитры: английские, шведские
Оригинальная аудиодорожка: английский
Режиссер: Роберт Уайз / Robert Wise
В ролях: Джули Харрис, Клэр Блум, Ричард Джонсон, Расс Тэмблин
Описание: Чтобы проверить загадочный характер усадьбы Hill House, построенной более ста лет назад для своей новой жены и ребенка миллионером Хью Крейном, доктор Марквей приглашает трех человек. Это наследник дома Люк Сандерсон-молодой человек, материалист, скептик и даже циник. Элеанора-подавленная нимфоманка, которая подсознательно чувствует себя виноватой в смерти матери, за которой она долгое время ухаживала. И Теодора-лесбиянка, обладающая способностями медиума. Они узнают, что первая жена Крейна погибла во время поездки к усадьбе, выпав из повозки. Вторая жена погибла уже внутри дома, упав с лестницы. Сам Хью Крейн утонул. Оставшаяся одна дочь Эбигейл умерла, когда сиделка не откликнулась на ее крик о помощи. Унаследовавшая дом сиделка вскоре тоже покончила жизнь самоубийством. Вот в такое «веселенькое» местечко прибыли доктор Марквей и его спутники. Постепенно дом оказывает все большее влияние на своих исследователей. Поскрипывания, шорохи, стоны, оханья, постукивания создают гнетущую атмосферу. Супруга доктора Марквея вскоре присоединяется к любителям острых ощущений. Элеанора, тайно влюбленная в доктора, возбуждает одновременно ревность у его супруги и страстное желание со стороны Теодоры. Вскоре доктор Марквей таинственным образом исчезает, а Элеонора пытается покончить жизнь самоубийством, бросившись вниз с лестницы. Доктор Марквей возвращается полупомешанный, а Элеонора погибает в автомобильной катастрофе возле дома, который подтверждает свою зловещую репутацию…

Качество: WEB-DLRip 720p (ViGi)
Формат: MKV
Видео кодек: H.264
Аудио кодек: AC3, ААС
Видео: 1280 x 534; 23,976 fps; 4174 Kbps
Аудио1: Русский, AC3 1.0 128 Kbps 48,0 КГц(Overfiend)
Аудио2: English, AAC 2.0 ~140 Kbps 48,0 КГц(Оригинал)
Аудио3: Русский, AC3 2.0 128 Kbps 48,0 КГц(Commentary)
Субтитры: Soft Sub (SRT)

MediaInfo

Общее
Уникальный идентификатор : 231443900414498599764697893168702505697 (0xAE1E794C9F2EE3358D99CA50847F42E1)
Полное имя : D:\HDFILMS\The.Haunting.1963.720p.WEB-DL.Rus.Eng.mkv
Формат : Matroska
Версия формата : Version 2
Размер файла : 3,57 Гбайт
Продолжительность : 1 ч. 51 м.
Общий поток : 4570 Кбит/сек
Название фильма : Haunting
Дата кодирования : UTC 2013-01-09 08:37:31
Программа кодирования : mkvmerge v5.3.0 ('I could have danced') built on Feb 9 2012 10:38:07
Библиотека кодирования : libebml v1.2.3 + libmatroska v1.3.0
Видео
Идентификатор : 1
Формат : AVC
Формат/Информация : Advanced Video Codec
Профиль формата : [email protected]
Параметр CABAC формата : Нет
Параметр ReFrames формата : 2 кадра
Идентификатор кодека : V_MPEG4/ISO/AVC
Продолжительность : 1 ч. 51 м.
Ширина : 1280 пикселей
Высота : 534 пикселя
Соотношение сторон : 2,40:1
Режим частоты кадров : Постоянный
Частота кадров : 23,976 кадра/сек
Цветовое пространство : YUV
Субдискретизация насыщенности : 4:2:0
Битовая глубина : 8 бит
Тип развёртки : Прогрессивная
Заголовок : The.Haunting.1963.720p.WEB-DL.AAC2.0.H.264-ViGi
Default : Нет
Forced : Нет
Основные цвета : BT.709
Характеристики трансфера : BT.709
Коэффициенты матрицы : BT.709
Аудио #1
Идентификатор : 2
Формат : AC-3
Формат/Информация : Audio Coding 3
Расширение режима : CM (complete main)
Параметр Endianness формата : Big
Идентификатор кодека : A_AC3
Продолжительность : 1 ч. 51 м.
Вид битрейта : Постоянный
Битрейт : 128 Кбит/сек
Каналы : 1 канал
Расположение каналов : Front: C
Частота : 48,0 КГц
Битовая глубина : 16 бит
Метод сжатия : С потерями
Размер потока : 102 Мбайт (3%)
Заголовок : Overfiend AC3 1.0 128 kbps
Язык : Russian
Default : Нет
Forced : Нет
Аудио #2
Идентификатор : 3
Формат : AAC
Формат/Информация : Advanced Audio Codec
Профиль формата : LC
Идентификатор кодека : A_AAC
Продолжительность : 1 ч. 51 м.
Каналы : 2 канала
Расположение каналов : Front: L R
Частота : 48,0 КГц
Метод сжатия : С потерями
Заголовок : Original AAC 2.0 ~140 kbps
Язык : English
Default : Нет
Forced : Нет
Аудио #3
Идентификатор : 4
Формат : AC-3
Формат/Информация : Audio Coding 3
Расширение режима : CM (complete main)
Параметр Endianness формата : Big
Идентификатор кодека : A_AC3
Продолжительность : 1 ч. 51 м.
Вид битрейта : Постоянный
Битрейт : 128 Кбит/сек
Каналы : 1 канал
Расположение каналов : Front: C
Частота : 48,0 КГц
Битовая глубина : 16 бит
Метод сжатия : С потерями
Размер потока : 102 Мбайт (3%)
Заголовок : Commentary AC3 1.0 128 kbps
Язык : Russian
Default : Нет
Forced : Нет
Текст #1
Идентификатор : 5
Формат : UTF-8
Идентификатор кодека : S_TEXT/UTF8
Идентификатор кодека/Информация : UTF-8 Plain Text
Язык : English
Default : Нет
Forced : Нет
Текст #2
Идентификатор : 6
Формат : UTF-8
Идентификатор кодека : S_TEXT/UTF8
Идентификатор кодека/Информация : UTF-8 Plain Text
Язык : Swedish
Default : Нет
Forced : Нет
Меню
00:00:00.000 : en:Credits.
00:02:12.000 : en:Hill House history.
00:06:35.000 : en:Expectations.
00:09:10.000 : en:Family skeleton.
00:12:40.000 : en:Eleanor's journey.
00:14:46.000 : en:Waiting for her.
00:18:29.000 : en:Mrs. Dudley's instructions.
00:22:23.000 : en:Alive.
00:26:03.000 : en:The only ones left.
00:30:39.000 : en:Uneasy explanations.
00:35:13.000 : en:Sleep well.
00:40:27.000 : en:Night noises.
00:47:26.000 : en:Supernaturally practical.
00:51:13.000 : en:Writing on the wall.
00:55:41.000 : en:Conservatory dance.
00:58:31.000 : en:Fearful heights.
01:03:18.000 : en:Girl talk.
01:05:53.000 : en:Cold spot.
01:08:10.000 : en:Whose hand?
01:12:33.000 : en:Burden of fear.
01:17:30.000 : en:Hill House's monster.
01:20:04.000 : en:New ghost hunter.
01:25:18.000 : en:It knows I'm here.
01:29:52.000 : en:Bulging at the seams.
01:32:13.000 : en:Coming apart.
01:35:05.000 : en:The spiral staircase.
01:39:07.000 : en:Atop the stairs.
01:42:48.000 : en:Out of place.
01:46:45.000 : en:The accident.
01:50:04.000 : en:We who walk here.

Скриншоты

Other forum [Profile] [PM]
Display posts from previous:    
Reply to topic

The time now is: Today 11:25

All times are GMT + 3 Hours



You cannot post new topics in this forum
You cannot reply to topics in this forum
You cannot edit your posts in this forum
You cannot delete your posts in this forum
You cannot vote in polls in this forum
You cannot attach files in this forum
You cannot download files in this forum