Today is a free download without charge Download

Укрытие / Hideaways (Агнес Мерле / Agnes Merlet) [2011, Ирландия, фэнтези, BDRip1080p]

Reply to topic
 
Author
Message

Delia ®

Gender:

Longevity: 10 years

Posts: 1821

Торрент-статистика

Post 09-Jan-2013 12:21

[Quote]

-УкрытиеHideaways-- Год выпуска: 2011
Страна: Ирландия
Жанр: фэнтези
Продолжительность: 01:32:53
Перевод: Профессиональный (многоголосый, закадровый)
Режиссер: Аньес Мерле / Agnès Merlet В ролях: Рейчел Херд-Вуд (Mae-West O'Mara), Гарри Тредэвэй (James Furlong), Томас Броди Сэнгстер (Liam), Сьюзэн Линч (Mrs. O'Mara), Стюарт Грэхэм (Sergeant), Кейт О’Тул (Mrs. Moore), Джеймс Уилсон (James Furlong Aged 5-10), Дьярмуид О’Двайр (Liam aged 11), КалемМартин (Stephen aged 13), Крэйг Коннолли (Kevin Aged 13), Лесли Конрой (Cathy Furlong), Аарон Монахэн (Philip Furlong aged 30)-Описание: Джеймс Фурлонг - наследник древнего рода, все представители которого обладали необыкновенными способностями. К тому времени, когда Джеймсу исполняется 10 лет, он уже знает, что он - последний в роду. Его эксперименты с собственным даром окончились трагически для всех остальных Фурлонгов. Напуганный до смерти, он старается понять, что за уникальный дар передан ему в качестве единственного наследства его рода. В ужасе от своих смертельных для окружающих способностей, Джеймс скрывается в лесу, надеясь, никогда в жизни больше не встречать людей. Но однажды его многолетняя добровольная ссылка в глухих лесах прерывается появлением странной девушки Мэй, которая вовсе не боится полудикого незнакомца.-

Качество: BDRip
Контейнер: MKV
Видео: AVC, 1920x816 (2.35:1), 11705 kbps, 23,976 fps, 0,312 bpp
Аудио №1: русский /; AC3 /; 2.0 /; 48 kHz /; 192 kbps /; 16 bit; ||
Аудио №2: английский /; AC3 /; 5.1 /; 48 kHz /; 384 kbps /; 16 bit--

Media Info

General
Unique ID : 240721091338131150697705819335432106602 (0xB51932204CF4A64C8DEC1A77D00C726A)
Complete name : E:\Hideaways(2011)BDRip-F-HD.mkv
Format : Matroska
Format version : Version 4 / Version 2
File size : 7.94 GiB
Duration : 1h 32mn
Overall bit rate : 12.2 Mbps
Encoded date : UTC 2010-02-22 21:41:31
Writing application : mkvmerge v5.9.0 ('On The Loose') built on Dec 9 2012 15:37:01
Writing library : libebml v1.3.0 + libmatroska v1.4.0
Video
ID : 1
Format : AVC
Format/Info : Advanced Video Codec
Format profile : [email protected]
Format settings, CABAC : Yes
Format settings, ReFrames : 5 frames
Codec ID : V_MPEG4/ISO/AVC
Duration : 1h 32mn
Bit rate : 11.7 Mbps
Width : 1 920 pixels
Height : 816 pixels
Display aspect ratio : 2.35:1
Frame rate : 23.976 fps
Color space : YUV
Chroma subsampling : 4:2:0
Bit depth : 8 bits
Scan type : Progressive
Bits/(Pixel*Frame) : 0.312
Stream size : 7.41 GiB (93%)
Writing library : x264 core 129 r2230 1cffe9f
Encoding settings : cabac=1 / ref=5 / deblock=1:-3:-3 / analyse=0x3:0x133 / me=umh / subme=10 / psy=1 / psy_rd=0.80:0.20 / mixed_ref=1 / me_range=32 / chroma_me=1 / trellis=2 / 8x8dct=1 / cqm=0 / deadzone=21,11 / fast_pskip=0 / chroma_qp_offset=-3 / threads=6 / lookahead_threads=1 / sliced_threads=0 / nr=0 / decimate=0 / interlaced=0 / bluray_compat=0 / constrained_intra=0 / bframes=9 / b_pyramid=2 / b_adapt=2 / b_bias=0 / direct=3 / weightb=1 / open_gop=0 / weightp=2 / keyint=240 / keyint_min=23 / scenecut=40 / intra_refresh=0 / rc_lookahead=40 / rc=2pass / mbtree=0 / bitrate=11705 / ratetol=1.0 / qcomp=0.70 / qpmin=10 / qpmax=51 / qpstep=4 / cplxblur=20.0 / qblur=0.5 / vbv_maxrate=60000 / vbv_bufsize=55000 / nal_hrd=none / ip_ratio=1.20 / pb_ratio=1.20 / aq=2:0.60
Language : English
Default : Yes
Forced : No
Color primaries : BT.709-5, BT.1361, IEC 61966-2-4, SMPTE RP177
Transfer characteristics : BT.709-5, BT.1361
Matrix coefficients : BT.709-5, BT.1361, IEC 61966-2-4 709, SMPTE RP177
Audio #1
ID : 2
Format : AC-3
Format/Info : Audio Coding 3
Mode extension : CM (complete main)
Codec ID : A_AC3
Duration : 1h 32mn
Bit rate mode : Constant
Bit rate : 192 Kbps
Channel(s) : 2 channels
Channel positions : Front: L R
Sampling rate : 48.0 KHz
Bit depth : 16 bits
Compression mode : Lossy
Stream size : 128 MiB (2%)
Language : Russian
Default : Yes
Forced : No
Audio #2
ID : 3
Format : AC-3
Format/Info : Audio Coding 3
Mode extension : CM (complete main)
Codec ID : A_AC3
Duration : 1h 32mn
Bit rate mode : Constant
Bit rate : 384 Kbps
Channel(s) : 6 channels
Channel positions : Front: L C R, Side: L R, LFE
Sampling rate : 48.0 KHz
Bit depth : 16 bits
Compression mode : Lossy
Stream size : 255 MiB (3%)
Language : English
Default : No
Forced : No


Скриншоты

     
     

_________________
Человек – это канат, натянутый между животным и сверхчеловеком, – канат над пропастью.
В человеке ценно то, что он мост, а не цель. Фридрих Ницше
Other forum [Profile] [PM]
Display posts from previous:    
Reply to topic

The time now is: Today 01:37

All times are GMT + 3 Hours



You cannot post new topics in this forum
You cannot reply to topics in this forum
You cannot edit your posts in this forum
You cannot delete your posts in this forum
You cannot vote in polls in this forum
You cannot attach files in this forum
You cannot download files in this forum