Today is a free download without charge Download

Ночные красавицы / Les belles de nuit (1952) DVDRip

Reply to topic
 
Author
Message

Omen ®

Longevity: 8 years 11 months

Posts: 181086

Торрент-статистика

Post 09-Jan-2013 04:44

[Quote]

-Ночные красавицы / Les belles de nuit (1952) DVDRip- Русское название: Ночные красавицы
Оригинальное название: Les belles de nuit
Год выпуска: 1952
Производство: Франция, Италия, Franco London Films, Rizzoli Film S.p.a.
Жанр: Фэнтези, мелодрама, комедия, детектив, музыка
Перевод: Профессиональный двухголосый
Субтитры: Отсутствуют
Режиссер: Рене Клер
Актеры: Жерар Филип, Мартина Кароль, Джина Лоллобриджида, Магали Вендеил, Мэрилин Бьюферд, Раймон Бюссьер, Раймон Корди, Бернар Ла Жарриж, Альбер Мишель, Пало, Жан Паредес, Паоло Стоппа, Робер Бальпо, Мадлен Барбюле
Описание фильма:Молодой композитор Клод влачит жалкое существование в одном из бедных Кварталов захолустного городка. Он подрабатывает учителем пения в школе, — над ним смеются ученики и подшучивают друзья детства — обладатели более земных профессий, а ко всему прочему сосед, владелец автомастерской, мешает сочинять ему музыку, заглушая звуки пианино (которое вот-вот заберут за неуплату аренды) ревом моторов.
Утонченный Клод убегает от удручающей реальности в свои сны, которые переносят его в разные эпохи. Там он — известный композитор, храбрый офицер, сражающийся в Африке, светский лев и одновременно революционер, мушкетер и дамский угодник. Мир снов гораздо ярче и реалистичнее мира подлинного.
Он торопился домой спать, а все его сны окрашены в романтический муар женщин, с которыми он сталкивался в повседневности. В жизни, не обращающие на него внимания, в его грезах превращаются в экзотических красавиц, сходящих от любви к нему с ума. Меняя эпохи и исторические события, он герой и победитель в них, но это лишь во сне, а наяву он не замечает многого…

Продолжительность: 01:22:26
Качество видео: DVDRip
Видеокодек: XviD
Битрейт видео: 1889 Кбит/сек
Размер кадра: 704x528
Аудио 1: Русский, AC3, 2 ch, 192 Кбит/с
Аудио 2: Французский, AC3, 2 ch, 192 Кбит/с

Награды и номинации

  • Венецианский кинофестиваль, 1952 год
    Победитель (1):
    Приз международной ассоциации кинокритиков (ФИПРЕССИ)
    Номинации (1):
    Золотой лев

MediaInfo

Код:
Общее
Полное имя                               : E:\Раздачи\Раздачи Видео\Ночные красавицы (1952) DVDRip.avi
Формат                                   : AVI
Формат/Информация                        : Audio Video Interleave
Размер файла                             : 1,32 Гбайт
Продолжительность                        : 1 ч. 22 м.
Общий поток                              : 2287 Кбит/сек
Программа кодирования                    : VirtualDubMod 1.5.10.2 (build 2542/release)
Видео
Идентификатор                            : 0
Формат                                   : MPEG-4 Visual
Профиль формата                          : Advanced [email protected]
Параметр BVOP формата                    : 2
Параметр QPel формата                    : Нет
Параметр GMC формата                     : Без точки перехода
Параметр матрицы формата                 : Default (MPEG)
Идентификатор кодека                     : XVID
Идентификатор кодека/Подсказка           : XviD
Продолжительность                        : 1 ч. 22 м.
Битрейт                                  : 1889 Кбит/сек
Ширина                                   : 704 пикселя
Высота                                   : 528 пикселей
Соотношение сторон                       : 4:3
Частота кадров                           : 25,000 кадров/сек
Цветовое пространство                    : YUV
Субдискретизация насыщенности            : 4:2:0
Битовая глубина                          : 8 бит
Тип развёртки                            : Прогрессивная
Метод сжатия                             : С потерями
Бит/(Пиксели*Кадры)                      : 0.203
Размер потока                            : 1,09 Гбайт (83%)
Библиотека кодирования                   : XviD 1.2.1 (UTC 2008-12-04)
Аудио #1
Идентификатор                            : 1
Формат                                   : AC-3
Формат/Информация                        : Audio Coding 3
Расширение режима                        : CM (complete main)
Параметр Endianness формата              : Big
Идентификатор кодека                     : 2000
Продолжительность                        : 1 ч. 22 м.
Вид битрейта                             : Постоянный
Битрейт                                  : 192 Кбит/сек
Каналы                                   : 2 канала
Расположение каналов                     : Front: L R
Частота                                  : 48,0 КГц
Битовая глубина                          : 16 бит
Метод сжатия                             : С потерями
Размер потока                            : 113 Мбайт (8%)
Выравнивание                             : Разделение по промежуткам
Продолжительность промежутка             : 40  мс. (1,00 видеокадр)
Время предзагрузки промежутка            : 500  мс.
Аудио #2
Идентификатор                            : 2
Формат                                   : AC-3
Формат/Информация                        : Audio Coding 3
Расширение режима                        : CM (complete main)
Параметр Endianness формата              : Big
Идентификатор кодека                     : 2000
Продолжительность                        : 1 ч. 22 м.
Вид битрейта                             : Постоянный
Битрейт                                  : 192 Кбит/сек
Каналы                                   : 2 канала
Расположение каналов                     : Front: L R
Частота                                  : 48,0 КГц
Битовая глубина                          : 16 бит
Метод сжатия                             : С потерями
Размер потока                            : 113 Мбайт (8%)
Выравнивание                             : Разделение по промежуткам
Продолжительность промежутка             : 40  мс. (1,00 видеокадр)
Время предзагрузки промежутка            : 500  мс.
Скриншоты:
         
         -Время раздачи: 9.00 - 23.00 (по мере возможности...)
Other forum [Profile] [PM]
Display posts from previous:    
Reply to topic

The time now is: Today 15:24

All times are GMT + 3 Hours



You cannot post new topics in this forum
You cannot reply to topics in this forum
You cannot edit your posts in this forum
You cannot delete your posts in this forum
You cannot vote in polls in this forum
You cannot attach files in this forum
You cannot download files in this forum