Today is a free download without charge Download

Знаменитые любовные истории / Amours celebres (1961) VHSRip

Reply to topic
 
Author
Message

Omen ®

Longevity: 8 years 11 months

Posts: 181086

Торрент-статистика

Post 09-Jan-2013 04:44

[Quote]

-Знаменитые любовные истории / Amours celebres (1961) VHSRip- Русское название: Знаменитые любовные истории
Оригинальное название: Amours celebres
Год выпуска: 1961
Страна: Франция, Италия
Жанр: мелодрама, история-
Премьера (РФ): 3 ноября 1961
Режиссер: Мишель Буарон
Актеры: Филипп Нуаре, Жан-Поль Бельмондо, Бриджит Бардо, Ален Делон, Анни Жирардо, Симона Синьоре, Мишель Галабрю, Жан-Клод Бриали

Описание фильма:
Четыре новеллы из различных эпох.
"Пусть историки не рассматривают этот фильм сквозь свои толстые очки. Любовные письма не листают в канцелярских делах. Мы хотели не учить истории, а только помечтать какой бы она могла быть..."
-Продолжительность: 01:55:39
Качество видео: VHSRip
Видеокодек: XviD
Формат: AVI
Битрейт видео: ~1557 kbps avg
Размер кадра: 608x272 (2,25:1)
Аудиокодек: MP3
Битрейт аудио: 48 kHz, MP3, 2 ch, ~128.00 kbps avg
Субтитры: отсутствуют

MediaInfo:

Формат : AVI
Формат/Информация : Audio Video Interleave
Размер файла : 1,37 Гбайт
Продолжительность : 1 ч. 55 м.
Общий поток : 1692 Кбит/сек
Программа кодирования : VirtualDubMod 1.5.4.1 (build 2178/release)
Библиотека кодирования : VirtualDubMod build 2178/release
Видео
Идентификатор : 0
Формат : MPEG-4 Visual
Профиль формата : Advanced [email protected]
Параметр BVOP формата : 1
Параметр QPel формата : Нет
Параметр GMC формата : Без точки перехода
Параметр матрицы формата : Выборочная
Идентификатор кодека : XVID
Идентификатор кодека/Подсказка : XviD
Продолжительность : 1 ч. 55 м.
Битрейт : 1557 Кбит/сек
Ширина : 608 пикселей
Высота : 272 пикселя
Соотношение сторон : 2,25:1
Частота кадров : 25,000 кадров/сек
Цветовое пространство : YUV
Субдискретизация насыщенности : 4:2:0
Битовая глубина : 8 бит
Тип развёртки : Прогрессивная
Метод сжатия : С потерями
Бит/(Пиксели*Кадры) : 0.377
Размер потока : 1,26 Гбайт (92%)
Библиотека кодирования : XviD 1.0.3 (UTC 2004-12-20)
Аудио
Идентификатор : 1
Формат : MPEG Audio
Версия формата : Version 1
Профиль формата : Layer 3
Режим : Joint stereo
Расширение режима : MS Stereo
Идентификатор кодека : 55
Идентификатор кодека/Подсказка : MP3
Продолжительность : 1 ч. 55 м.
Вид битрейта : Постоянный
Битрейт : 128 Кбит/сек
Каналы : 2 канала
Частота : 48,0 КГц
Метод сжатия : С потерями
Размер потока : 106 Мбайт (8%)
Выравнивание : Соединение по промежуткам
Продолжительность промежутка : 80 мс. (2,00 видеокадра)
Время предзагрузки промежутка : 504 мс.
Скриншоты:
         
         
Время раздачи: 24/7
Other forum [Profile] [PM]
Display posts from previous:    
Reply to topic

The time now is: Today 11:17

All times are GMT + 3 Hours



You cannot post new topics in this forum
You cannot reply to topics in this forum
You cannot edit your posts in this forum
You cannot delete your posts in this forum
You cannot vote in polls in this forum
You cannot attach files in this forum
You cannot download files in this forum